imdb
rating

6.0
Universal Soldier

Universal Soldier (1992)

Action, Crime, Science Fiction, Thriller

Full description
quality   bd hd dvdrip x264 fullhd h264

Universal Soldier [1992] 720p H264 BRRip Dual Audio [Hin-Eng] {deven101}

Size 789.751 MB   0 seeders     Added 2013-03-22 04:45:48

Stream torrent
Starting‥ You need BitLord! Get it from BitLord.com
10
To download or stream you need BitLord. Visit them at BitLord.com
[URL=http://imageshack.us/photo/my-images/89/00125af6medium.jpg/][IMG]image[/IMG][/URL]

[URL=http://imageshack.us/photo/my-images/404/14592887.png/][IMG]image[/IMG][/URL]

[URL=http://imageshack.us/photo/my-images/690/34653326.jpg/][IMG]image[/IMG][/URL]

[URL=http://imageshack.us/photo/my-images/27/78107231.jpg/][IMG]image[/IMG][/URL]

[URL=http://imageshack.us/photo/my-images/577/14236807.jpg/][IMG]image[/IMG][/URL]

[URL=http://imageshack.us/photo/my-images/405/22055740.jpg/][IMG]image[/IMG][/URL]

[URL=http://imgbox.com/acfI9FPf][IMG]image[/IMG][/URL] 
General
Complete name                            : Universal Soldier [1992] 720p H264 BRRip Dual Audio [Hin-Eng] {deven101}.mkv
Format                                   : Matroska
Format version                           : Version 2
File size                                : 737 MiB
Duration                                 : 1h 43mn
Overall bit rate mode                    : Variable
Overall bit rate                         : 993 Kbps
Movie name                               : Universal Soldier [1992] 720p H264 BRRip Dual Audio [Hin-Eng] {deven101} 
Encoded date                             : UTC 2013-03-19 11:40:11
Writing application                      : mkvmerge v5.7.0 ('The Whirlwind') built on Jul  8 2012 20:08:51
Writing library                          : libebml v1.2.3 + libmatroska v1.3.0
[URL=http://imgbox.com/abz5GPKa][IMG]image[/IMG][/URL] 
Video
ID                                       : 1
Format                                   : AVC
Format/Info                              : Advanced Video Codec
Format profile                           : High@L4.0
Format settings, CABAC                   : Yes
Format settings, ReFrames                : 3 frames
Muxing mode                              : Header stripping
Codec ID                                 : V_MPEG4/ISO/AVC
Duration                                 : 1h 43mn
Bit rate mode                            : Variable
Bit rate                                 : 676 Kbps
Maximum bit rate                         : 25.0 Mbps
Width                                    : 1 280 pixels
Height                                   : 544 pixels
Display aspect ratio                     : 2.35:1
Frame rate mode                          : Constant
Frame rate                               : 23.962 fps
Original frame rate                      : 23.960 fps
Color space                              : YUV
Chroma subsampling                       : 4:2:0
Bit depth                                : 8 bits
Scan type                                : Progressive
Bits/(Pixel*Frame)                       : 0.041
Stream size                              : 485 MiB (66%)
Title                                    : Universal Soldier [1992] 720p H264 BRRip Dual Audio [Hin-Eng] {deven101}
Writing library                          : x264 core 120 r2120 0c7dab9
Encoding settings                        : cabac=1 / ref=3 / deblock=1:0:0 / analyse=0x3:0x113 / me=hex / subme=7 / psy=1 / psy_rd=1.00:0.00 / mixed_ref=1 / me_range=16 / chroma_me=1 / trellis=1 / 8x8dct=1 / cqm=0 / deadzone=21,11 / fast_pskip=1 / chroma_qp_offset=-2 / threads=12 / sliced_threads=0 / nr=0 / decimate=1 / interlaced=0 / bluray_compat=0 / constrained_intra=0 / bframes=3 / b_pyramid=0 / b_adapt=1 / b_bias=0 / direct=1 / weightb=1 / open_gop=0 / weightp=2 / keyint=240 / keyint_min=24 / scenecut=40 / intra_refresh=0 / rc_lookahead=40 / rc=2pass / mbtree=1 / bitrate=676 / ratetol=1.0 / qcomp=0.60 / qpmin=0 / qpmax=69 / qpstep=4 / cplxblur=20.0 / qblur=0.5 / vbv_maxrate=25000 / vbv_bufsize=25000 / nal_hrd=vbr / ip_ratio=1.40 / aq=1:1.00
Default                                  : Yes
Forced                                   : No
[URL=http://imgbox.com/acrBqrTJ][IMG]image[/IMG][/URL] 
Audio #1
ID                                       : 2
Format                                   : AC-3
Format/Info                              : Audio Coding 3
Mode extension                           : CM (complete main)
Format settings, Endianness              : Big
Muxing mode                              : Header stripping
Codec ID                                 : A_AC3
Duration                                 : 1h 43mn
Bit rate mode                            : Constant
Bit rate                                 : 192 Kbps
Channel(s)                               : 2 channels
Channel positions                        : Front: L R
Sampling rate                            : 44.1 KHz
Bit depth                                : 16 bits
Compression mode                         : Lossy
Delay relative to video                  : 14ms
Stream size                              : 142 MiB (19%)
Title                                    : dev
Language                                 : Hindi
Default                                  : Yes
Forced                                   : No
[URL=http://imgbox.com/acrBqrTJ][IMG]image[/IMG][/URL] 
Audio #2
ID                                       : 3
Format                                   : AC-3
Format/Info                              : Audio Coding 3
Mode extension                           : CM (complete main)
Format settings, Endianness              : Big
Muxing mode                              : Header stripping
Codec ID                                 : A_AC3
Duration                                 : 1h 43mn
Bit rate mode                            : Constant
Bit rate                                 : 128 Kbps
Channel(s)                               : 6 channels
Channel positions                        : Front: L C R, Side: L R, LFE
Sampling rate                            : 48.0 KHz
Bit depth                                : 16 bits
Compression mode                         : Lossy
Delay relative to video                  : 20ms
Stream size                              : 94.9 MiB (13%)
Title                                    : dev
Language                                 : English
Default                                  : No
Forced                                   : No
		
Universal Soldier [1992] 720p H264 BRRip Dual Audio [Hin-Eng] {deven101}/Universal Soldier [1992] 720p H264 BRRip Dual Audio [Hin-Eng] {deven101}.mkv 772.413 MB
Universal Soldier [1992] 720p H264 BRRip Dual Audio [Hin-Eng] {deven101}/Sample/Universal Soldier [1992] 720p H264 BRRip Dual Audio [Hin-Eng] {deven101}.mkv 16.294 MB
Universal Soldier [1992] 720p H264 BRRip Dual Audio [Hin-Eng] {deven101}/Screen Shot/8.jpg 162.18 KB
Gathering some info...

Register and log in Isohunt and see no captcha anymore!

4000 symbols left
Hash 10d75101d719edbead19899bb1f8f2a63e5a8085

Related torrents for "Universal Soldier [1992] 720p H264 BRRip Dual Audio [Hin-Eng] {deven101}"

Torrent search:

english h264 1992 hd hindi bd