{www.scenetime.com}BC NEW SOURCE-INF

Size 999.954 MB   0 seeders     Added 2013-03-22 06:00:26

Stream torrent
Starting‚Ä• You need BitLord! Get it from 1BitLord.com
To download or stream you need BitLord. Visit them at BitLord.com
*************************************************************************************

Love for All and Sharing is the first step to solving all the problems of humanity.

Website I want to share.
             

 scenetime,com

- Latest Releases
- Super Fast Speeds
- Good Community
- Competitions with prizes (yay)
- Love for the Scene


 Credit to EVERYONE for sharing and seeding back
especially to SceneTime where i get all my
downloads.

For more info about this release, open .NFO file with notepad !!!
support scenetime to grow faster.

*************************************************************************************
 
image


General
BC NEW SOURCE 2013 Xvid-INF
Format                                   : AVI
Format/Info                              : Audio Video Interleave
File size                                : 946 MiB
Duration                                 : 1h 39mn
Overall bit rate                         : 1 332 Kbps
Writing application                      : Lavf54.6.100
Writing library                          : VirtualDub build 32842/release

Video
ID                                       : 0
Format                                   : MPEG-4 Visual
Format profile                           : Advanced Simple@L5
Format settings, BVOP                    : 2
Format settings, QPel                    : No
Format settings, GMC                     : No warppoints
Format settings, Matrix                  : Default (H.263)
Muxing mode                              : Packed bitstream
Codec ID                                 : XVID
Codec ID/Hint                            : XviD
Duration                                 : 1h 39mn
Bit rate                                 : 1 191 Kbps
Width                                    : 720 pixels
Height                                   : 298 pixels
Display aspect ratio                     : 2.40:1
Frame rate                               : 29.970 fps
Color space                              : YUV
Chroma subsampling                       : 4:2:0
Bit depth                                : 8 bits
Scan type                                : Progressive
Compression mode                         : Lossy
Bits/(Pixel*Frame)                       : 0.185
Stream size                              : 845 MiB (89%)
Writing library                          : XviD 64

Audio
ID                                       : 1
Format                                   : MPEG Audio
Format version                           : Version 1
Format profile                           : Layer 3
Mode                                     : Joint stereo
Mode extension                           : MS Stereo
Codec ID                                 : 55
Codec ID/Hint                            : MP3
Duration                                 : 1h 39mn
Bit rate mode                            : Constant
Bit rate                                 : 128 Kbps
Channel(s)                               : 2 channels
Sampling rate                            : 44.1 KHz
Compression mode                         : Lossy
Stream size                              : 90.8 MiB (10%)
Alignment                                : Aligned on interleaves
Interleave, duration                     : 26 ms (0.78 video frame)
Interleave, preload duration             : 522 ms
Writing library                          : LAME3.98.4

NOTE


SOURCE: NOT REALLY SURE TBH!
GOT THIS FROM blu3army FROM ANOTHER SITE THANKS BRO 
SOME SAYING IT'S A SCREENER AND OTHERS ARE SAYING IT'S NOT!
COULD BE A WEB RIP BUT NOT REALLY SURE 
THERE IS NO CAMERA MOVEMENT,NO FLICKER AND NO FOCUS ISSUSE SO IT IS NOT A GOOD QUALITY TS AS SOME HAVE STATED IT WAS, IT'S BETTER THEN THAT IMO BUT AGAIN TBH I'M NOT SURE AND HAVE NO PROOF!
EITHER WAY IT IS WHAT IT IS!
DARK SCENES OR LIGHT YOU CAN SEE IT ALL PERFECT!


OK BLURRED OUT THE LOGO ON THE TOP LEFT SIDE AND CROPPED OUT THE NON-ENGLISH SUBS ON THE BOTTOM BUT THERE IS STILL A WATER MARK (SEE 3RD SCREEN) FROM TIME TO TIME IN THE CENTER AND IF WE WOULD HAVE BLURRED THAT OUT IT PROBABLY WOULD HAVE RUINED THE WHOLE FILM SO LEFT IT IN!

I'M SURE NoZGT FROM *THC* CAN PROBABLY DO IT THO 

CONVERTED FROM AVC TO XVID AND AAC TO MP3 BEFORE WE DROPPED IT INTO VDUB SO IF ANYONE WANTS TO RE-ENCODE IT FEEL FREE 

ADJUSTED SATURATION DOWN ABIT AS WE THOUGHT IT WAS TOO RED AND PLAYED WITH INT,BRIGHTNESS AND CONTRAST A LITTLE BIT,RESIZED AND THAT'S ABOUT IT BUT I ALWAYS KEEP IT REAL FOR THOSE WHO KNOW ME AND NEVER MAKE SOMETHING OUT TO BE WHAT IT IS NOT! 
PEOPLE NEED TO UNDERSTAND IT'S NOT A COMPETITION!
MOST OF US DO THIS FOR ENJOYMENT

SCREENS
 
image 
image 
image 
image 
image 
image		
{www.scenetime.com}BC NEW SOURCE-INF/Torrent have been downloaded from Scenetime.com.txt 195 B
{www.scenetime.com}BC NEW SOURCE-INF/Read this before playing this Video.txt 195 B
{www.scenetime.com}BC NEW SOURCE-INF/BC SAMP.avi 8.425 MB
Gathering some info...

Register and log in Isohunt and see no captcha anymore!

4000 symbols left
Hash 45a9e5462fbc16a1f589962a292aed0eeddbfde4