imdb
rating

2.9
Scavengers

Scavengers (2013)

Action, Science Fiction

Full description
quality   x264 bd hd fullhd

Scavengers 2013 BRRip x264 AAC-OFFLiNE

Size 1.535 GB   0 seeders     Added 2013-03-22 06:45:38

Stream torrent
Starting‥ You need BitLord! Get it from BitLord.com
To download or stream you need BitLord. Visit them at BitLord.com
Source: Space.Soldiers.2013.German.DL.1080p.BluRay.x264-EPHEMERiD
 
http://www.imdb.com/title/tt1564369/

A team of space scavengers discovers superior alien technology that threatens the balance of the known universe. Hotly pursued by a rival crew of intergalactic mercenaries, the Revelator crew must fight through the deepest reaches of space to locate and protect the life-altering device.

General
Complete name                            : Scavengers 2013 BRRip x264 AAC-OFFLiNE.mp4
Format                                   : MPEG-4
Format profile                           : Base Media
Codec ID                                 : isom
File size                                : 1.41 GiB
Duration                                 : 1h 33mn
Overall bit rate mode                    : Variable
Overall bit rate                         : 2 162 Kbps
Encoded date                             : UTC 2013-03-22 02:49:44
Tagged date                              : UTC 2013-03-22 02:49:44

Video
ID                                       : 1
Format                                   : AVC
Format/Info                              : Advanced Video Codec
Format profile                           : High@L4.1
Format settings, CABAC                   : Yes
Format settings, ReFrames                : 3 frames
Codec ID                                 : avc1
Codec ID/Info                            : Advanced Video Coding
Duration                                 : 1h 33mn
Bit rate mode                            : Variable
Bit rate                                 : 1 834 Kbps
Maximum bit rate                         : 40.0 Mbps
Width                                    : 720 pixels
Height                                   : 304 pixels
Display aspect ratio                     : 2.35:1
Frame rate mode                          : Constant
Frame rate                               : 23.976 fps
Color space                              : YUV
Chroma subsampling                       : 4:2:0
Bit depth                                : 8 bits
Scan type                                : Progressive
Bits/(Pixel*Frame)                       : 0.349
Stream size                              : 1.20 GiB (85%)
Writing library                          : x264 core 130 r2273 b3065e6

Audio
ID                                       : 2
Format                                   : AAC
Format/Info                              : Advanced Audio Codec
Format profile                           : LC
Codec ID                                 : 40
Duration                                 : 1h 33mn
Bit rate mode                            : Variable
Bit rate                                 : 326 Kbps
Maximum bit rate                         : 411 Kbps
Channel(s)                               : 6 channels
Channel positions                        : Front: L C R, Side: L R, LFE
Sampling rate                            : 48.0 KHz
Compression mode                         : Lossy
Stream size                              : 218 MiB (15%)
Language                                 : English
Encoded date                             : UTC 2013-03-22 00:46:19
Tagged date                              : UTC 2013-03-22 02:50:05

Screens: 
image 
image 
image 
image		
Scavengers 2013 BRRip x264 AAC-OFFLiNE/www.RARBG.com.txt 45 B
Scavengers 2013 BRRip x264 AAC-OFFLiNE/sample.mp4 19.339 MB
Scavengers 2013 BRRip x264 AAC-OFFLiNE/Scavengers.nfo 3.586 KB
Gathering some info...

Register and log in Isohunt and see no captcha anymore!

4000 symbols left
Hash 3978fa4f3a270568f5e1fddd7e0b6a1880785fcc

Related torrents for "Scavengers 2013 BRRip x264 AAC-OFFLiNE"

Torrent search:

x264 bd 2013