Aatma'2013 (Audio Cleaned) - Untouched Scam

Size 454.382 MB   0 seeders     Added 2013-03-22 09:00:33

Stream torrent
Starting‥ You need BitLord! Get it from BitLord.com
To download or stream you need BitLord. Visit them at BitLord.com
 image 
image 
image 
image 
image

Media Info - 
Video
ID : 224 (0xE0)
Format : MPEG Video
Format version : Version 2
Format profile : Main@Main
Format settings, BVOP : Yes
Format settings, Matrix : Default
Format settings, GOP : M=3, N=13
Duration : 1h 25mn
Bit rate mode : Variable
Bit rate : 569 Kbps
Maximum bit rate : 9 072 Kbps
Width : 352 pixels
Height : 288 pixels
Display aspect ratio : 4:3
Frame rate : 25.000 fps
Standard : PAL
Color space : YUV
Chroma subsampling : 4:2:0
Bit depth : 8 bits
Scan type : Progressive
Compression mode : Lossy
Bits/(Pixel*Frame) : 0.224
Stream size : 346 MiB (80%)

Audio
ID : 192 (0xC0)
Format : MPEG Audio
Format version : Version 1
Format profile : Layer 2
Duration : 1h 25mn
Bit rate mode : Constant
Bit rate : 128 Kbps
Channel(s) : 2 channels
Sampling rate : 48.0 KHz
Compression mode : Lossy
Delay relative to video : -1s 40ms
Stream size : 78.0 MiB (18%)

Credits to Original Sharer DDD...;)

Seeding 24x7... Extreme Seeding...


Enjoy!
		
Aatma'2013 (Audio Cleaned) - Untouched Scam/VIDEO_TS/VTS_01_0.VOB 59.392 KB
Aatma'2013 (Audio Cleaned) - Untouched Scam/VIDEO_TS/VTS_01_1.VOB 454.111 MB
Aatma'2013 (Audio Cleaned) - Untouched Scam/VIDEO_TS/VTS_01_0.IFO 63.488 KB
Gathering some info...

Register and log in Isohunt and see no captcha anymore!

4000 symbols left
Hash 445fc38b84b1f8387788a28e00db8afe96cc7a37