Beautiful Creatures 2013 FRENCH DVDRip XviD - Ltu Verified

Size 734.306 MB   0 seeders     Added 2013-03-22 21:46:26

To download or stream you need BitLord. Visit them at BitLord.com
Beautiful Creatures 2013 FRENCH DVDRip XviD - Ltu


STATS:

Video
ID                               : 0
Format                           : MPEG-4 Visual
Format profile                   : Advanced Simple@L5
Format settings, BVOP            : 2
Format settings, QPel            : No   
Format settings, GMC             : No warppoints   
Format settings, Matrix          : Default (MPEG)  
Muxing mode                      : Packed bitstream    
Codec ID                         : XVID  
Codec ID/Hint                    : XviD
Duration                         : 2h 04mn        
Bit rate                         : 986 Kbps
Width                            : 720 pixels     
Height                           : 320 pixels
Display aspect ratio             : 2.25:1        
Frame rate                       : 29.970 fps
Color space                      : YUV
Chroma subsampling               : 4:2:0
Bit depth                        : 8 bits
Scan type                        : Progressive
Compression mode                 : Lossy
Bits/(Pixel*Frame)               : 0.243
Stream size                      : 643 MiB (92%)
Writing library                  : XviD 64

Audio

Format                           : MPEG Audio
Format version                   : Version 1
Format profile                   : Layer 3
Mode                             : Joint stereo
Mode extension                   : MS Stereo
Codec ID                         : 55
Codec ID/Hint                    : MP3
Duration                         : 2h 04mn
Bit rate mode                    : Constant
Bit rate                         : 128 Kbps
Channel(s)                       : 2 channels
Sampling rate                    : 48.0 KHz
Compression mode                 : Lossy
Stream size                      : 56 MiB (7%)
Alignment                        : Split accross interleaves
Interleave, duration             : 33 ms (1.00 video frame)
Interleave, preload duration     : 500 ms                     
Beautiful Creatures 2013 FRENCH DVDRip XviD - Ltu/Beautiful Creatures 2013 FRENCH DVDRip XviD - Ltu.nfo 2.01 KB
Beautiful Creatures 2013 FRENCH DVDRip XviD - Ltu/Beautiful Creatures 2013 FRENCH.DVDRip XviD - Ltu.rar 733.684 MB
Beautiful Creatures 2013 FRENCH DVDRip XviD - Ltu/cover.jpg 356.416 KB
Gathering some info...

Register and log in Isohunt and see no captcha anymore!

4000 symbols left
Hash 19285cbf5415d7b3de0c252d9996c66838966209