imdb
rating

5.8
Somebody Up There Likes Me

Somebody Up There Likes Me (2013)

Comedy

Full description
quality   web-dl web-rip dvdrip

Somebody.Up.There.Likes.Me.WEBRip XViD juggs

Size 742.708 MB   0 seeders     Added 2013-03-22 12:00:40

Stream torrent
Starting‥ You need BitLord! Get it from BitLord.com
To download or stream you need BitLord. Visit them at BitLord.com
Source : NGB(Thanks)
 
http://www.imdb.com/title/tt2014346/

Format/Info                              : Audio Video Interleave
File size                                : 700 MiB
Duration                                 : 1h 15mn
Overall bit rate                         : 1 298 Kbps
Writing library                          : VirtualDub build 32842/release

Video
ID                                       : 0
Format                                   : MPEG-4 Visual
Format profile                           : Advanced Simple@L5
Format settings, BVOP                    : 4
Format settings, QPel                    : No
Format settings, GMC                     : No warppoints
Format settings, Matrix                  : Default (H.263)
Muxing mode                              : Packed bitstream
Codec ID                                 : XVID
Codec ID/Hint                            : XviD
Duration                                 : 1h 15mn
Bit rate                                 : 1 159 Kbps
Width                                    : 640 pixels
Height                                   : 352 pixels
Display aspect ratio                     : 16:9
Frame rate                               : 29.970 fps
Color space                              : YUV
Chroma subsampling                       : 4:2:0
Bit depth                                : 8 bits
Scan type                                : Progressive
Compression mode                         : Lossy
Bits/(Pixel*Frame)                       : 0.172
Stream size                              : 624 MiB (89%)
Writing library                          : XviD 64

Audio
ID                                       : 1
Format                                   : MPEG Audio
Format version                           : Version 1
Format profile                           : Layer 3
Codec ID                                 : 55
Codec ID/Hint                            : MP3
Duration                                 : 1h 15mn
Bit rate mode                            : Constant
Bit rate                                 : 128 Kbps
Channel(s)                               : 2 channels
Sampling rate                            : 44.1 KHz
Compression mode                         : Lossy
Stream size                              : 69.0 MiB (10%)
Alignment                                : Split accross interleaves
Interleave, duration                     : 33 ms (1.00 video frame)
Interleave, preload duration             : 500 ms
Writing library                          : LAME3.99r
Encoding settings                        : -m s -V 4 -q 3 -lowpass 17 -b 128


Plot
A comedy about a man, his best friend, and the woman they both adore watching their lives fly by.

Screens: 
image 
image 
image		
Somebody.Up.There.Likes.Me.WEBRip XViD juggs/www.RARBG.com.txt 45 B
Somebody.Up.There.Likes.Me.WEBRip XViD juggs/sample.avi 8.987 MB
Somebody.Up.There.Likes.Me.WEBRip XViD juggs/Somebody.Up.There.Likes.Me.WEBRip XViD juggs.avi 733.721 MB
Gathering some info...

Register and log in Isohunt and see no captcha anymore!

4000 symbols left
Hash 46cd7060cafa24af0fa3dd038c10b1581eb6c470

Related torrents for "Somebody.Up.There.Likes.Me.WEBRip XViD juggs"

Torrent search:

web-rip