imdb
rating

5.8
Somebody Up There Likes Me

Somebody Up There Likes Me (2013)

Comedy

Full description
quality   web-dl web-rip dvdrip

Somebody.Up.There.Likes.Me.WEB-DL XVID AC3 BHRG

Size 1.02 GB   0 seeders     Added 2013-03-22 12:00:32

Stream torrent
Starting‥ You need BitLord! Get it from BitLord.com
To download or stream you need BitLord. Visit them at BitLord.com
Format                                   : AVI
Format/Info                              : Audio Video Interleave
File size                                : 968 MiB
Duration                                 : 1h 15mn
Overall bit rate                         : 1 795 Kbps
Writing library                          : VirtualDub build 30091/release

Video
ID                                       : 0
Format                                   : MPEG-4 Visual
Format profile                           : Advanced Simple@L5
Format settings, BVOP                    : 2
Format settings, QPel                    : No
Format settings, GMC                     : No warppoints
Format settings, Matrix                  : Default (H.263)
Muxing mode                              : Packed bitstream
Codec ID                                 : XVID
Codec ID/Hint                            : XviD
Duration                                 : 1h 15mn
Bit rate                                 : 1 594 Kbps
Width                                    : 720 pixels
Height                                   : 400 pixels
Display aspect ratio                     : 16:9
Frame rate                               : 23.976 fps
Color space                              : YUV
Chroma subsampling                       : 4:2:0
Bit depth                                : 8 bits
Scan type                                : Progressive
Compression mode                         : Lossy
Bits/(Pixel*Frame)                       : 0.231
Stream size                              : 859 MiB (89%)
Writing library                          : XviD 1.2.1 (UTC 2008-12-04)

Audio
ID                                       : 1
Format                                   : AC-3
Format/Info                              : Audio Coding 3
Mode extension                           : CM (complete main)
Format settings, Endianness              : Big
Codec ID                                 : 2000
Duration                                 : 1h 15mn
Bit rate mode                            : Constant
Bit rate                                 : 192 Kbps
Channel(s)                               : 2 channels
Channel positions                        : Front: L R
Sampling rate                            : 48.0 KHz
Bit depth                                : 16 bits
Compression mode                         : Lossy
Stream size                              : 103 MiB (11%)

Screens:
 
image 
image		
Somebody.Up.There.Likes.Me.WEB-DL XVID AC3 BHRG/www.RARBG.com.txt 45 B
Somebody.Up.There.Likes.Me.WEB-DL XVID AC3 BHRG/Somebody.Up.There.Likes.Me.WEB-DL XVID AC3 BHRG.avi 1.015 GB
Somebody.Up.There.Likes.Me.WEB-DL XVID AC3 BHRG/Somebody.Up.There.Likes.Me.WEB-DL XVID AC3 BHRG sample.avi 5.613 MB
Gathering some info...

Register and log in Isohunt and see no captcha anymore!

4000 symbols left
Hash 37f6bac3f750f0bbb0220fac7f0b13e7c341e8e9

Related torrents for "Somebody.Up.There.Likes.Me.WEB-DL XVID AC3 BHRG"

Torrent search:

web-dl