UEFA MAG

Size 269.348 MB   0 seeders     Added 2013-03-22 17:45:36

Stream torrent
Starting‥ You need BitLord! Get it from 1BitLord.com
To download or stream you need BitLord. Visit them at BitLord.com
A review of the latest matches in Europe's premier club competition, plus a look ahead to forthcoming fixtures. Broadcasted on 22 march 2013 in English by UEFA.


Technical Information : 



Video

ID                             : 1
Format                         : AVC
Format/Info                    : Advanced Video Codec
Format profile                 : High@L3.0
Format settings, CABAC         : Yes
Format settings, ReFrames      : 4 frames
Codec ID                       : avc1
Codec ID/Info                  : Advanced Video Coding
Duration                       : 24mn 18s
Bit rate                       : 1 343 Kbps
Maximum bit rate               : 5 731 Kbps
Width                          : 640 pixels
Height                         : 360 pixels
Display aspect ratio           : 16:9
Frame rate mode                : Constant
Frame rate                     : 25.000 fps
Color space                    : YUV
Chroma subsampling             : 4:2:0
Bit depth                      : 8 bits
Scan type                      : Progressive
Bits/(Pixel*Frame)             : 0.233
Stream size                    : 234 MiB (91%)


Audio

ID                             : 2
Format                         : AAC
Format/Info                    : Advanced Audio Codec
Format profile                 : LC
Codec ID                       : 40
Duration                       : 24mn 18s
Bit rate mode                  : Variable
Bit rate                       : 128 Kbps
Maximum bit rate               : 145 Kbps
Channel(s)                     : 2 channels
Channel positions              : Front: L R
Sampling rate                  : 48.0 KHz
Compression mode               : Lossy
Delay relative to video        : 80ms
Stream size                    : 22.2 MiB (9%)
Language                       : English

Screens : 
 
image
 
image
 
image
		
UEFA MAG/UMAG23.MP4 269.282 MB
UEFA MAG/Screens (2).jpg 35.688 KB
UEFA MAG/Screens (1).jpg 15.989 KB
Gathering some info...

Register and log in Isohunt and see no captcha anymore!

4000 symbols left
Hash 0ceba5056b0f108703f4d60fb1668bc953376663