imdb
rating

 
Formula 1

Formula 1

Full description

Formula 1 2013 Malaysia Practice 2

Size 6.118 GB   0 seeders     Added 2013-03-23 01:31:03

Stream torrent
Starting‥ You need BitLord! Get it from BitLord.com
To download or stream you need BitLord. Visit them at BitLord.com
Formula 1 2013. Practice Session 2

Round 2: 	Malaysia. Kuala Lumpur. (22-24th March 2013) 
Circuit: 	Sepang International Circuit
Air Date: 	22.03.13 
Time: 		05.45am-08.00am
Running Time: 	1hr:58min

Coverage of the 2nd Practice Session for the Malaysian GP, broadcast Live via SKY SPORTS F1 HD at the Sepang Circuit. 

To reduce SKY's LIVE audio sync errors during add-breaks,the commercials have been left intact. Removing them can cause considerable encoding and playback problems as the 
live stream switches from Dolby Digital to standard stereo output and back during such breaks, this plays havoc with encoding the audio feed as pure 6 channel AC3 Digital.

All my torrents for F1 2013 are wrapped into MKV format. Resolution is downscaled from 1080i>50 source to 720p with 6 channel AC3 Dolby Digital Audio. 
These video files will play very fluidly with the standard media players such as VLC, WMP, KM Player, WMC, MP-HC.

H.264 High Profile 4.1 has been used in combination with 50fps to maintain smooth and fluid playback with HD quality... 

Screenshots are also provided for visual confimration & quality, I do try to check carefully not to show any spoilers!

FOR ALL YOUR LATEST F1 NEWS, GOSSIP, TRACK GUIDES, DISCUSSION & FULL TORRENT INFORMATION IN MORE DETAIL, AND ACCESS TO MUCH MORE, PLEASE KEEP YOUR EYE ON THE FORUM:  
http://www.f1racingleague.co.uk/f82-formula-1-2013-torrents

Join my Twitter Feed for all Formula 1 info & get notified via tweets when torrents become available!: 
Follow me @

Thank you's,comments and suggestions are always welcome...

Theblacknight

**For anyone having mkv playback issues on Windows 7 or 8, I do recommend installing the Shark Codec Packs which are available free on the link below: 
(*NOTE: sharks default settings work well for WMP)

Video File Encoding Details:

Format                                   : Matroska
Format version                           : Version 4 / Version 2
File size                                : 5.70 GiB
Duration                                 : 1h 58mn
Overall bit rate                         : 6 872 Kbps
Encoded date                             : UTC 2013-03-22 23:03:12
Writing application                      : mkvmerge v6.0.0 ('Coming Up For Air') built on Jan 20 2013 09:52:00
Writing library                          : Lavf54.63.100

Video
ID                                       : 1
Format                                   : AVC
Format/Info                              : Advanced Video Codec
Format profile                           : High@L4.1
Format settings, CABAC                   : Yes
Format settings, ReFrames                : 4 frames
Codec ID                                 : V_MPEG4/ISO/AVC
Duration                                 : 1h 58mn
Bit rate                                 : 6 351 Kbps
Width                                    : 1 280 pixels
Height                                   : 720 pixels
Display aspect ratio                     : 16:9
Frame rate mode                          : Constant
Frame rate                               : 50.000 fps
Color space                              : YUV
Chroma subsampling                       : 4:2:0
Bit depth                                : 8 bits
Scan type                                : Progressive
Bits/(Pixel*Frame)                       : 0.138
Stream size                              : 5.27 GiB (92%)
Writing library                          : x264 core 130 r2273
Encoding settings                        : cabac=1 / ref=4 / deblock=1:0:0 / analyse=0x3:0x133 / me=dia / subme=4 / psy=1 / psy_rd=1.00:0.00 / mixed_ref=0 / me_range=16 / chroma_me=1 / trellis=0 / 8x8dct=1 / cqm=0 / deadzone=21,11 / fast_pskip=1 / chroma_qp_offset=0 / threads=4 / lookahead_threads=1 / sliced_threads=0 / nr=0 / decimate=1 / interlaced=0 / bluray_compat=0 / constrained_intra=0 / bframes=4 / b_pyramid=0 / b_adapt=1 / b_bias=0 / direct=3 / weightb=1 / open_gop=0 / weightp=1 / keyint=500 / keyint_min=50 / scenecut=40 / intra_refresh=0 / rc=cqp / mbtree=0 / qp=22 / ip_ratio=1.40 / pb_ratio=1.30 / aq=0
Default                                  : Yes
Forced                                   : No

Audio
ID                                       : 2
Format                                   : AC-3
Format/Info                              : Audio Coding 3
Mode extension                           : CM (complete main)
Format settings, Endianness              : Big
Codec ID                                 : A_AC3
Duration                                 : 1h 58mn
Bit rate mode                            : Constant
Bit rate                                 : 384 Kbps
Channel(s)                               : 6 channels
Channel positions                        : Front: L C R, Side: L R, LFE
Sampling rate                            : 48.0 KHz
Bit depth                                : 16 bits
Compression mode                         : Lossy
Delay relative to video                  : -20ms
Stream size                              : 326 MiB (6%)
Language                                 : English
Default                                  : Yes
Forced                                   : No

		
Formula 1 2013 Malaysia Practice 2/Formula 1 2013 Malaysian Practice 2 HD.720p.H264.AC3.TBK.mkv 6.118 GB
Formula 1 2013 Malaysia Practice 2/Please Read.txt 5.307 KB
Gathering some info...

Register and log in Isohunt and see no captcha anymore!

4000 symbols left
Hash 92811b6b71ec33cfb2d78be159641d8f82049863

Related torrents for "Formula 1 2013 Malaysia Practice 2"

Torrent search:

2013