FIFA Чемпионат мира по футболу 2014

FIFA Чемпионат мира по футболу 2014 (2014)

Sports

Full description

22.3.2013.FIFA.2014.WCQ.UEFA.GroupF.D7.Israel.vs.Portugal.720p.mkv Verified

Size 4.893 GB   4 seeders     Added 2013-03-23 03:31:01

Stream torrent
Starting‥ You need BitLord! Get it from BitLord.com
To download or stream you need BitLord. Visit them at BitLord.com
2014 FIFA World Cup qualification, Israel hosts Portugal.
720p DVB-S2 Source, Hebrew commentary.

Format                                   : Matroska
Format version                           : Version 1
File size                                : 4.56 GiB
Duration                                 : 2h 15mn
Overall bit rate                         : 4 807 Kbps
Encoded date                             : UTC 2013-03-23 00:22:54
Writing application                      : mkvmerge v2.4.0 ('Fumbling Towards Ecstasy') built on Oct 11 2008 20:13:15
Writing library                          : libebml v0.7.7 + libmatroska v0.8.1

Video
ID                                       : 1
Format                                   : AVC
Format/Info                              : Advanced Video Codec
Format profile                           : High@L4.0
Format settings, CABAC                   : No
Format settings, ReFrames                : 1 frame
Codec ID                                 : V_MPEG4/ISO/AVC
Duration                                 : 2h 15mn
Bit rate                                 : 4 608 Kbps
Width                                    : 1 280 pixels
Height                                   : 720 pixels
Display aspect ratio                     : 16:9
Frame rate mode                          : Constant
Frame rate                               : 50.000 fps
Color space                              : YUV
Chroma subsampling                       : 4:2:0
Bit depth                                : 8 bits
Scan type                                : Progressive
Bits/(Pixel*Frame)                       : 0.100
Stream size                              : 4.28 GiB (94%)
Writing library                          : x264 core 116 r2019 9cc407d
Encoding settings                        : cabac=0 / ref=1 / deblock=1:0:0 / analyse=0x3:0x113 / me=hex / subme=7 / psy=1 / psy_rd=1.00:0.00 / mixed_ref=0 / me_range=16 / chroma_me=1 / trellis=1 / 8x8dct=1 / cqm=0 / deadzone=21,11 / fast_pskip=1 / chroma_qp_offset=-2 / threads=6 / sliced_threads=0 / nr=0 / decimate=1 / interlaced=0 / bluray_compat=0 / constrained_intra=0 / bframes=0 / weightp=2 / keyint=250 / keyint_min=25 / scenecut=40 / intra_refresh=0 / rc_lookahead=40 / rc=2pass / mbtree=1 / bitrate=4608 / ratetol=1.0 / qcomp=0.60 / qpmin=0 / qpmax=69 / qpstep=4 / cplxblur=20.0 / qblur=0.5 / ip_ratio=1.40 / aq=1:1.00
Default                                  : Yes
Forced                                   : No

Audio
ID                                       : 2
Format                                   : AC-3
Format/Info                              : Audio Coding 3
Mode extension                           : CM (complete main)
Format settings, Endianness              : Big
Codec ID                                 : A_AC3
Duration                                 : 2h 15mn
Bit rate mode                            : Constant
Bit rate                                 : 192 Kbps
Channel(s)                               : 2 channels
Channel positions                        : Front: L R
Sampling rate                            : 48.0 KHz
Bit depth                                : 16 bits
Compression mode                         : Lossy
Delay relative to video                  : -20ms
Stream size                              : 186 MiB (4%)
Default                                  : Yes
Forced                                   : No		
22.3.2013.FIFA.2014.WCQ.UEFA.GroupF.D7.Israel.vs.Portugal.720p.mkv 4.893 GB
Gathering some info...

Register and log in Isohunt and see no captcha anymore!

4000 symbols left
Hash 770f8eed8fcb478882c893f646921cee06d261fa

Related torrents for "22.3.2013.FIFA.2014.WCQ.UEFA.GroupF.D7.Israel.vs.Portugal.720p.mkv"

Torrent search:

hd 2014