imdb
rating

6.0
Dead Man on Campus

Dead Man on Campus (1998)

Comedy

Full description
quality   dvdrip cam x264 hdtv hd

[ www.Speed.Cd ] - Dead.Man.Down.2103.CAM.XviD-HustleHard

Size 1.148 GB   0 seeders     Added 2013-03-23 04:02:15

Stream torrent
Starting‥ You need BitLord! Get it from BitLord.com
To download or stream you need BitLord. Visit them at BitLord.com
-

      the fast  and The Hottest Private Tracker on the net

Please Seed back to make the speed Faster!!
 ............ NFO .............
-IMDB : http://www.imdb.com/title/tt2101341/

Format                                   : MPEG-4
Format profile                           : Base Media
Codec ID                                 : isom
File size                                : 1.07 GiB
Duration                                 : 1h 33mn
Overall bit rate mode                    : Variable
Overall bit rate                         : 1 630 Kbps
Encoded date                             : UTC 2013-03-22 07:48:25
Tagged date                              : UTC 2013-03-22 07:48:30

Video
ID                                       : 2
Format                                   : AVC
Format/Info                              : Advanced Video Codec
Format profile                           : Baseline@L3.1
Format settings, CABAC                   : No
Format settings, ReFrames                : 1 frame
Format settings, GOP                     : M=1, N=24
Muxing mode                              : Container profile=Baseline@3.0
Codec ID                                 : avc1
Codec ID/Info                            : Advanced Video Coding
Duration                                 : 1h 33mn
Bit rate mode                            : Variable
Bit rate                                 : 1 496 Kbps
Maximum bit rate                         : 2 250 Kbps
Width                                    : 848 pixels
Height                                   : 480 pixels
Display aspect ratio                     : 16:9
Original display aspect ratio            : 16:9
Frame rate mode                          : Constant
Frame rate                               : 29.970 fps
Color space                              : YUV
Chroma subsampling                       : 4:2:0
Bit depth                                : 8 bits
Scan type                                : Progressive
Bits/(Pixel*Frame)                       : 0.123
Stream size                              : 1 005 MiB (92%)
Language                                 : English

Audio
ID                                       : 1
Format                                   : AAC
Format/Info                              : Advanced Audio Codec
Format profile                           : LC
Codec ID                                 : 40
Duration                                 : 1h 33mn
Bit rate mode                            : Variable
Bit rate                                 : 128 Kbps
Maximum bit rate                         : 201 Kbps
Channel(s)                               : 2 channels
Channel positions                        : Front: L R
Sampling rate                            : 48.0 KHz
Compression mode                         : Lossy
Stream size                              : 86.0 MiB (8%)
Language                                 : English

SCREENS :

		
[ www.Speed.Cd ] - Dead.Man.Down.2103.CAM.XviD-HustleHard/Dead.Man.Down.2103.CAM.XviD-HustleHard.mp4 1.148 GB
[ www.Speed.Cd ] - Dead.Man.Down.2103.CAM.XviD-HustleHard/info.nfo 2.884 KB
[ www.Speed.Cd ] - Dead.Man.Down.2103.CAM.XviD-HustleHard/www.scenetime.com.txt 55 B
Gathering some info...

Register and log in Isohunt and see no captcha anymore!

4000 symbols left
Hash 965b5608cc3e26e94c432ae135c5bf9d5a827991

Related torrents for "[ www.Speed.Cd ] - Dead.Man.Down.2103.CAM.XviD-HustleHard"

Torrent search:

cam