imdb
rating

8.6
Spartacus: Gods of the Arena

Spartacus: Gods of the Arena (2011)

Action, Drama, History

Full description

Spartacus.S03E08.720p.HDTV.x264-IMMERSE.mkv

Size 1.612 GB   0 seeders     Added 2013-03-23 04:21:52

Stream torrent
Starting‥ You need BitLord! Get it from BitLord.com
To download or stream you need BitLord. Visit them at BitLord.com
Format                                   : Matroska
Format version                           : Version 2
File size                                : 1.50 GiB
Duration                                 : 54mn 15s
Overall bit rate                         : 3 962 Kbps
Writing application                      : x264.exe
Writing library                          : mkv2rls x264-tv version built on 2011. febr. 17

Video
ID                                       : 1
Format                                   : AVC
Format/Info                              : Advanced Video Codec
Format profile                           : High@L4.1
Format settings, CABAC                   : Yes
Format settings, ReFrames                : 5 frames
Codec ID                                 : V_MPEG4/ISO/AVC
Duration                                 : 54mn 15s
Bit rate                                 : 3 499 Kbps
Width                                    : 1 280 pixels
Height                                   : 720 pixels
Display aspect ratio                     : 16:9
Frame rate mode                          : Constant
Frame rate                               : 23.976 fps
Color space                              : YUV
Chroma subsampling                       : 4:2:0
Bit depth                                : 8 bits
Scan type                                : Progressive
Bits/(Pixel*Frame)                       : 0.158
Stream size                              : 1.33 GiB (88%)


Audio
ID                                       : 2
Format                                   : AC-3
Format/Info                              : Audio Coding 3
Mode extension                           : CM (complete main)
Format settings, Endianness              : Big
Codec ID                                 : A_AC3
Duration                                 : 54mn 15s
Bit rate mode                            : Constant
Bit rate                                 : 384 Kbps
Channel(s)                               : 6 channels
Channel positions                        : Front: L C R, Side: L R, LFE
Sampling rate                            : 48.0 KHz
Bit depth                                : 16 bits
Compression mode                         : Lossy
Stream size                              : 149 MiB (10%)-------------------------------------Torrent downloaded from http://thepiratebay.se
Spartacus.S03E08.720p.HDTV.x264-IMMERSE.mkv 1.612 GB
Gathering some info...

Register and log in Isohunt and see no captcha anymore!

4000 symbols left
Hash b716dee463466702b91187a6636d4f7570be29e2

Related torrents for "Spartacus.S03E08.720p.HDTV.x264-IMMERSE.mkv"

Torrent search:

season 03 x264 hdtv episode 08 hd