imdb
rating

5.1
186 Dollars to Freedom

186 Dollars to Freedom (2012)

Action, Drama

Full description
quality   x264 hd bd dvdrip dvdr fullhd

186 Dollars To Freedom 2012 BRRip 720p x264 AAC - PRiSTiNE [P2PDL]

Size 612.293 MB   0 seeders     Added 2013-03-23 06:45:15

Stream torrent
Starting‥ You need BitLord! Get it from BitLord.com
To download or stream you need BitLord. Visit them at BitLord.com
_________________________  Visit us at _________________________
  
http://p2pdl.com  ____________________________  http://p2pdl.com


186 Dollars To Freedom 2012 BRRip 720p x264 AAC - PRiSTiNE

Genre: Action | Drama
Plot: A young California surfer has to grow up 
in a hurry when he is thrown into a Peruvian 
political prison in 1980.
Director: Camilo Vila
Stars: John Robinson, Michael DeLorenzo, Alex Meraz
Rated: Rated PG-13 for sex related dialogue and some teen use of alcohol and drugs

Info: 
http://www.imdb.com/title/tt1652361/

General
Complete name                  : 186 Dollars To Freedom 2012 BRRip 720p x264 AAC - PRiSTiNE.mp4
Format                         : MPEG-4
Format profile                 : Base Media
File size                      : 578 MiB
Duration                       : 1h 38mn
Overall bit rate mode          : Variable
Overall bit rate               : 822 Kbps

Source                         : 720p BluRay BRMP (Thanks)

Video
Format                         : AVC
Format profile                 : High@L4.1
Format settings, CABAC         : Yes
Codec ID/Info                  : Advanced Video Coding
Duration                       : 1h 38mn
Bit rate                       : 735 Kbps
Width                          : 1 280 pixels
Height                         : 720 pixels
Display aspect ratio           : 16:9
Frame rate mode                : Constant
Frame rate                     : 23.976 fps
Bit depth                      : 8 bits
Stream size                    : 517 MiB (89%)
Writing library                : x264 core 129 r2245 bc13772

Audio
Format                         : AAC
Format/Info                    : Advanced Audio Codec
Bit rate mode                  : Variable
Bit rate                       : 83.9 Kbps
Channel(s)                     : 2 channels
Channel positions              : Front: L R
Sampling rate                  : 48.0 KHz / 24.0 KHz
Stream size                    : 59.0 MiB (10%)

Subtitle                       : No

Screens: 
image 
image 
image 
image

----------------------------------------------------------------------------------------------------
Encoded using revolutionary 10bit encoding, which enables us to provide you more crispier 
and sharper images at small sizes, just make sure you follow our instructions without a fault.
Recommend to you to use latest version of VLC player. Install K-Lite Codec Pack or shark007 codecs
in case of any kind of problem in playback (For non-VLC Media Player users). Alternatively, install
Core AVC codecs, the fastest decoder that there is coupled with Community Center Codec Pack and play
on Windows Media Player Classic. Check sample to be sure.
Enjoy!

Encoder Notes: Looking For Early Access To Anything You Can Provide DVDScr, R5, DVDR, BluRay, Direct
Audio, Music Releases and Seedboxes. We require dedicated servers, so as to do more 
and fast releases of movies.
If You Got anything to offer please contact us at "prg@hush.com".		
186 Dollars To Freedom 2012 BRRip 720p x264 AAC - PRiSTiNE [P2PDL]/186 Dollars To Freedom 2012 BRRip 720p x264 AAC - PRiSTiNE/186 Dollars To Freedom 2012 BRRip 720p x264 AAC - PRiSTiNE.mp4 606.425 MB
186 Dollars To Freedom 2012 BRRip 720p x264 AAC - PRiSTiNE [P2PDL]/Sample.mp4 5.862 MB
186 Dollars To Freedom 2012 BRRip 720p x264 AAC - PRiSTiNE [P2PDL]/186 Dollars To Freedom 2012 BRRip 720p x264 AAC - PRiSTiNE/186 Dollars To Freedom 2012 BRRip 720p x264 AAC - PRiSTiNE.nfo 5.44 KB
Gathering some info...

Register and log in Isohunt and see no captcha anymore!

4000 symbols left
Hash 4108de8d36395b492d9641556bdf3c228697d164

Related torrents for "186 Dollars To Freedom 2012 BRRip 720p x264 AAC - PRiSTiNE [P2PDL]"

Torrent search:

x264 hd 2012 bd