imdb
rating

5.3
Spring Breakers

Spring Breakers (2012)

Crime, Drama

Full description

Spring.Breakers.2012.CAMRip.XviD.READNFO-INFERNO

Size 1.262 GB   0 seeders     Added 2013-03-24 02:46:15

Stream torrent
Starting‥ You need BitLord! Get it from BitLord.com
10
To download or stream you need BitLord. Visit them at BitLord.com
Synopsis:[/b] Four college girls who land in jail after robbing a restaurant in order to fund their spring break vacation find themselves bailed out by a drug and arms dealer who wants them to do some dirty work.





[b]General:[/b]

     Complete name                            : SB 2012 CAMRip Xvid-INF.avi
     Format                                   : AVI
     Format/Info                              : Audio Video Interleave
     File size                                : 1.16 GiB
     Duration                                 : 1h 32mn
     Overall bit rate                         : 1 619 Kbps
     Writing application                      : Lavf54.6.100
     Writing library                          : VirtualDub build 32842/release
     
     Video
     ID                                       : 0
     Format                                   : MPEG-4 Visual
     Format profile                           : Advanced Simple@L5
     Format settings, BVOP                    : 2
     Format settings, QPel                    : No
     Format settings, GMC                     : No warppoints
     Format settings, Matrix                  : Default (H.263)
     Muxing mode                              : Packed bitstream
     Codec ID                                 : XVID
     Codec ID/Hint                            : XviD
     Duration                                 : 1h 32mn
     Bit rate                                 : 1 478 Kbps
     Width                                    : 624 pixels
     Height                                   : 320 pixels
     Display aspect ratio                     : 1.950
     Frame rate                               : 29.970 fps
     Color space                              : YUV
     Chroma subsampling                       : 4:2:0
     Bit depth                                : 8 bits
     Scan type                                : Progressive
     Compression mode                         : Lossy
     Bits/(Pixel*Frame)                       : 0.247
     Stream size                              : 1.06 GiB (91%)
     Writing library                          : XviD 64
     
     Audio
     ID                                       : 1
     Format                                   : MPEG Audio
     Format version                           : Version 1
     Format profile                           : Layer 3
     Mode                                     : Joint stereo
     Mode extension                           : MS Stereo
     Codec ID                                 : 55
     Codec ID/Hint                            : MP3
     Duration                                 : 1h 32mn
     Bit rate mode                            : Constant
     Bit rate                                 : 128 Kbps
     Channel(s)                               : 2 channels
     Sampling rate                            : 44.1 KHz
     Compression mode                         : Lossy
     Stream size                              : 94.2 MiB (8%)
     Alignment                                : Aligned on interleaves
     Interleave, duration                     : 26 ms (0.78 video frame)
     Interleave, preload duration             : 522 ms
Spring.Breakers.2012.CAMRip.XviD.READNFO-INFERNO/SB.2012.CAMRip.Xvid-INF.avi 1.246 GB
Spring.Breakers.2012.CAMRip.XviD.READNFO-INFERNO/SB.2012.CAMRip.Xvid-INF.nfo 5.888 KB
Spring.Breakers.2012.CAMRip.XviD.READNFO-INFERNO/SB.2012.CAMRip Sample.avi 16.204 MB
Gathering some info...

Register and log in Isohunt and see no captcha anymore!

4000 symbols left
Hash f498003e56b686f35d535206e3ec5df872df3a06

Related torrents for "Spring.Breakers.2012.CAMRip.XviD.READNFO-INFERNO"

Torrent search:

cam 2012