imdb
rating

3.3
Dark Feed

Dark Feed (2013)

Horror

Full description
quality   dvdrip x264 hd web-dl dvdr h264

Dark.Feed.2013.DVDRip XViD juggs

Size 744.279 MB   34 seeders     Added 2013-03-23 16:15:43

Stream torrent
Starting‥ You need BitLord! Get it from BitLord.com
To download or stream you need BitLord. Visit them at BitLord.com
Source : DVDR IGUANA (Thanks)
 
http://www.imdb.com/title/tt1430077/


Format : AVI
Format/Info : Audio Video Interleave
File size : 700 MiB
Duration : 1h 25mn
Overall bit rate : 1 138 Kbps
Writing library : VirtualDub build 32842/release

Video
ID : 0
Format : MPEG-4 Visual
Format profile : Advanced Simple@L5
Format settings, BVOP : 2
Format settings, QPel : No
Format settings, GMC : No warppoints
Format settings, Matrix : Default (H.263)
Muxing mode : Packed bitstream
Codec ID : XVID
Codec ID/Hint : XviD
Duration : 1h 25mn
Bit rate : 1 000 Kbps
Width : 640 pixels
Height : 352 pixels
Display aspect ratio : 16:9
Frame rate : 23.976 fps
Color space : YUV
Chroma subsampling : 4:2:0
Bit depth : 8 bits
Scan type : Progressive
Compression mode : Lossy
Bits/(Pixel*Frame) : 0.185
Stream size : 615 MiB (88%)
Writing library : XviD 64

Audio
ID : 1
Format : MPEG Audio
Format version : Version 1
Format profile : Layer 3
Codec ID : 55
Codec ID/Hint : MP3
Duration : 1h 25mn
Bit rate mode : Constant
Bit rate : 128 Kbps
Channel(s) : 2 channels
Sampling rate : 44.1 KHz
Compression mode : Lossy
Stream size : 78.7 MiB (11%)
Alignment : Split accross interleaves
Interleave, duration : 42 ms (1.00 video frame)
Interleave, preload duration : 500 ms
Writing library : LAME3.99r
Encoding settings : -m s -V 4 -q 3 -lowpass 17 -b 128


Plot
A film crew moves into an abandoned psychiatric hospital with a shadowy past to shoot a low budget horror movie.

 
image 
image 
image		
Dark.Feed.2013.DVDRip XViD juggs/Dark.Feed.2013.DVDRip XViD juggs.avi 733.561 MB
Dark.Feed.2013.DVDRip XViD juggs/Torrent Downloaded From ExtraTorrent.com.txt 339 B
Dark.Feed.2013.DVDRip XViD juggs/sample.avi 10.717 MB
Gathering some info...

Register and log in Isohunt and see no captcha anymore!

4000 symbols left
Hash dae2fb0b8de3dcb31be79ee58a80bc5c26b427ba

Related torrents for "Dark.Feed.2013.DVDRip XViD juggs"

Torrent search:

dvdrip 2013