imdb
rating

5.2
Inescapable

Inescapable (2012)

Thriller, Romance

Full description
quality   dvdrip x264 telesync dvdr

Inescapable.2012.BRRip XViD juggs

Size 749.941 MB   390 seeders     Added 2013-03-23 20:15:29

Stream torrent
Starting‥ You need BitLord! Get it from 1BitLord.com
To download or stream you need BitLord. Visit them at BitLord.com
Source : Public HD (Thanks)
 
http://www.imdb.com/title/tt1844203/


Format : AVI
Format/Info : Audio Video Interleave
File size : 706 MiB
Duration : 1h 32mn
Overall bit rate : 1 062 Kbps
Writing library : VirtualDub build 32842/release

Video
ID : 0
Format : MPEG-4 Visual
Format profile : Advanced Simple@L5
Format settings, BVOP : 4
Format settings, QPel : No
Format settings, GMC : No warppoints
Format settings, Matrix : Default (H.263)
Muxing mode : Packed bitstream
Codec ID : XVID
Codec ID/Hint : XviD
Duration : 1h 32mn
Bit rate : 925 Kbps
Width : 640 pixels
Height : 352 pixels
Display aspect ratio : 16:9
Frame rate : 24.000 fps
Color space : YUV
Chroma subsampling : 4:2:0
Bit depth : 8 bits
Scan type : Progressive
Compression mode : Lossy
Bits/(Pixel*Frame) : 0.171
Stream size : 615 MiB (87%)
Writing library : XviD 64

Audio
ID : 1
Format : MPEG Audio
Format version : Version 1
Format profile : Layer 3
Codec ID : 55
Codec ID/Hint : MP3
Duration : 1h 32mn
Bit rate mode : Constant
Bit rate : 128 Kbps
Channel(s) : 2 channels
Sampling rate : 44.1 KHz
Compression mode : Lossy
Stream size : 85.1 MiB (12%)
Alignment : Split accross interleaves
Interleave, duration : 42 ms (1.00 video frame)
Interleave, preload duration : 500 ms
Writing library : LAME3.99r
Encoding settings : -m s -V 4 -q 3 -lowpass 17 -b 128


Plot
Years after he left Damascus under suspicious circumstances, Adib Abdel Kareem must confront what he left behind when his daughter goes missing.

 
image 
image 
image		
Inescapable.2012.BRRip XViD juggs/Torrent Downloaded From ExtraTorrent.com.txt 339 B
Inescapable.2012.BRRip XViD juggs/inescapable.2012.BRRip XViD juggs.avi 740.29 MB
Inescapable.2012.BRRip XViD juggs/sample.avi 9.65 MB
Gathering some info...

Register and log in Isohunt and see no captcha anymore!

4000 symbols left
Hash 8719e0910cde4e6a5eefbda788c9584819992476

Related torrents for "Inescapable.2012.BRRip XViD juggs"

Torrent search:

2012 bd