Melancholian 3 Huonetta (The 3 Rooms of Melancholia) - 2004

Size 1.349 GB   0 seeders     Added 2013-03-24 02:30:44

Stream torrent
Starting‥ You need BitLord! Get it from BitLord.com
To download or stream you need BitLord. Visit them at BitLord.com
A searing examination of the unrelenting Chechen conflict, observed through the prisms of a Russian military boys academy, a war-torn town and a children's refugee camp. 
Narrated by Pirkko Saisio, directed by Pirjo Honkasalo.

General
Complete name                            : Melancholian 3 Huonetta (The 3 Rooms of Melancholia) - 2004.avi
Format                                   : AVI
Format/Info                              : Audio Video Interleave
File size                                : 1.26 GiB
Duration                                 : 1h 45mn
Overall bit rate                         : 1 703 Kbps

Video
ID                                       : 0
Format                                   : MPEG-4 Visual
Format profile                           : Simple@L3
Format settings, BVOP                    : No
Format settings, QPel                    : No
Format settings, GMC                     : No warppoints
Format settings, Matrix                  : Default (H.263)
Codec ID                                 : XVID
Codec ID/Hint                            : XviD
Duration                                 : 1h 45mn
Source duration                          : 1h 45mn
Bit rate                                 : 1 500 Kbps
Width                                    : 704 pixels
Height                                   : 384 pixels
Display aspect ratio                     : 1.85:1
Frame rate                               : 25.000 fps
Color space                              : YUV
Chroma subsampling                       : 4:2:0
Bit depth                                : 8 bits
Scan type                                : Progressive
Compression mode                         : Lossy
Bits/(Pixel*Frame)                       : 0.222
Stream size                              : 1.11 GiB (88%)
Writing library                          : XviD 1.1.2 (UTC 2006-11-01)

Audio
ID                                       : 1
Format                                   : AC-3
Format/Info                              : Audio Coding 3
Mode extension                           : CM (complete main)
Format settings, Endianness              : Big
Codec ID                                 : 2000
Duration                                 : 1h 45mn
Bit rate mode                            : Constant
Bit rate                                 : 192 Kbps
Channel(s)                               : 2 channels
Channel positions                        : Front: L R
Sampling rate                            : 48.0 KHz
Bit depth                                : 16 bits
Compression mode                         : Lossy
Stream size                              : 145 MiB (11%)
Alignment                                : Aligned on interleaves
Interleave, duration                     : 32 ms (0.80 video frame)
Interleave, preload duration             : 512 ms

		
Melancholian 3 Huonetta (The 3 Rooms of Melancholia) - 2004/Melancholian 3 Huonetta (The 3 Rooms of Melancholia) - 2004.avi 1.349 GB
Melancholian 3 Huonetta (The 3 Rooms of Melancholia) - 2004/Melancholian 3 Huonetta (The 3 Rooms of Melancholia) - 2004.Eng.srt 23.111 KB
Gathering some info...

Register and log in Isohunt and see no captcha anymore!

4000 symbols left
Hash f9282bd6714801cc4c349db4269fdbe2d89de7b7

We have tons of cool stuff like this:

Torrent search:

2004