imdb
rating

 
The Crown

The Crown (2016)

Drama

Full description

Where's My Crown.mp4 Verified

Size 23.455 MB   0 seeders     Added 2013-03-24 05:15:21

Stream torrent
Starting‥ You need BitLord! Get it from 1BitLord.com
To download or stream you need BitLord. Visit them at BitLord.com
Video
ID                                       : 1
Format                                   : AVC
Format/Info                              : Advanced Video Codec
Format profile                           : Baseline@L3.0
Format settings, CABAC                   : No
Format settings, ReFrames                : 3 frames
Format settings, GOP                     : M=1, N=30
Codec ID                                 : avc1
Codec ID/Info                            : Advanced Video Coding
Duration                                 : 2mn 45s
Bit rate                                 : 1 000 Kbps
Width                                    : 640 pixels
Height                                   : 360 pixels
Display aspect ratio                     : 16:9
Frame rate mode                          : Constant
Frame rate                               : 30.000 fps
Color space                              : YUV
Chroma subsampling                       : 4:2:0
Bit depth                                : 8 bits
Scan type                                : Progressive
Bits/(Pixel*Frame)                       : 0.145
Stream size                              : 19.7 MiB (88%)
Writing library                          : x264 core 118 r2085 8a62835
Language                                 : English

Audio
ID                                       : 2
Format                                   : AAC
Format/Info                              : Advanced Audio Codec
Format profile                           : LC
Codec ID                                 : 40
Duration                                 : 2mn 45s
Bit rate mode                            : Constant
Bit rate                                 : 128 Kbps
Channel(s)                               : 2 channels
Channel positions                        : Front: L R
Sampling rate                            : 44.1 KHz
Compression mode                         : Lossy
Delay relative to video                  : 33ms
Stream size                              : 2.52 MiB (11%)
		
Where's My Crown.mp4 23.455 MB
Gathering some info...

Register and log in Isohunt and see no captcha anymore!

4000 symbols left
Hash f35e2198a9fb6fa199c1f8a7e3616e8069ea09de

Related torrents for "Where's My Crown.mp4"