Naruto vs. Kyuubi - Full Fight (English Sub).mp4

Size 314.194 MB   0 seeders     Added 2013-03-24 09:24:27

Stream torrent
Starting‥ You need BitLord! Get it from 1BitLord.com
To download or stream you need BitLord. Visit them at BitLord.com
THANKS to GANESH
**WATCH**SEED**COMENT**ENJOY**
Video
ID                                       : 1
Format                                   : AVC
Format/Info                              : Advanced Video Codec
Format profile                           : High@L3.1
Format settings, CABAC                   : Yes
Format settings, ReFrames                : 1 frame
Format settings, GOP                     : M=1, N=60
Codec ID                                 : avc1
Codec ID/Info                            : Advanced Video Coding
Duration                                 : 31mn 19s
Bit rate                                 : 1 143 Kbps
Maximum bit rate                         : 4 662 Kbps
Width                                    : 1 280 pixels
Height                                   : 720 pixels
Display aspect ratio                     : 16:9
Frame rate mode                          : Constant
Frame rate                               : 23.976 fps
Color space                              : YUV
Chroma subsampling                       : 4:2:0
Bit depth                                : 8 bits
Scan type                                : Progressive
Bits/(Pixel*Frame)                       : 0.052
Stream size                              : 256 MiB (85%)
Tagged date                              : UTC 2012-12-24 05:19:01
Audio
ID                                       : 2
Format                                   : AAC
Format/Info                              : Advanced Audio Codec
Format profile                           : LC
Codec ID                                 : 40
Duration                                 : 31mn 19s
Bit rate mode                            : Variable
Bit rate                                 : 192 Kbps
Maximum bit rate                         : 201 Kbps
Channel(s)                               : 2 channels
Channel positions                        : Front: L R
Sampling rate                            : 44.1 KHz
Compression mode                         : Lossy
Stream size                              : 43.0 MiB (14%)
Title                                    : IsoMedia File Produced by Google, 5-11-2011
Encoded date                             : UTC 2012-12-24 05:19:00
Tagged date                              : UTC 2012-12-24 05:19:01		
Naruto vs. Kyuubi - Full Fight (English Sub).mp4 314.194 MB
Gathering some info...

Register and log in Isohunt and see no captcha anymore!

4000 symbols left
Hash 4bad12386dfcd90d932592195e55a6ce67b2335f

Related torrents for "Naruto vs. Kyuubi - Full Fight (English Sub).mp4"

Torrent search:

english