imdb
rating

7.0
28 Weeks Later

28 Weeks Later (2007)

Horror, Science Fiction, Thriller

Full description

28 Weeks Later.mp4

Size 1.099 GB   0 seeders     Added 2013-03-24 09:25:58

Stream torrent
Starting‥ You need BitLord! Get it from BitLord.com
To download or stream you need BitLord. Visit them at BitLord.com
Six months after the rage virus was inflicted on the population of Great Britain, the US Army helps to secure a small area of London for the survivors to repopulate and start again. But not everything goes to plan.
SCREENSHOTS: http://bayimg.com/hakgCAaEP http://bayimg.com/hAkGHaAEP http://bayimg.com/HaKGJaaEp http://bayimg.com/haKGOaaep http://bayimg.com/haKgpAAeP http://bayimg.com/IakGBAaep http://bayimg.com/IAKgDaaEP http://bayimg.com/iakGeAaEP
Please seed to keep this alive!
General
Format                         : MPEG-4
Format profile                 : Base Media / Version 2
Codec ID                       : mp42
File size                      : 1.02 GiB
Duration                       : 1h 40mn
Overall bit rate mode          : Variable
Overall bit rate               : 1 464 Kbps
Video
ID                             : 1
Format                         : AVC
Format/Info                    : Advanced Video Codec
Format profile                 : High@L4.0
Format settings, CABAC         : Yes
Format settings, ReFrames      : 6 frames
Codec ID                       : avc1
Codec ID/Info                  : Advanced Video Coding
Duration                       : 1h 40mn
Bit rate mode                  : Variable
Bit rate                       : 1 300 Kbps
Width                          : 1 280 pixels
Height                         : 694 pixels
Display aspect ratio           : 16:9
Frame rate mode                : Variable
Frame rate                     : 23.976 fps
Minimum frame rate             : 23.419 fps
Maximum frame rate             : 24.390 fps
Color space                    : YUV
Chroma subsampling             : 4:2:0
Bit depth                      : 8 bits
Scan type                      : Progressive
Bits/(Pixel*Frame)             : 0.061
Stream size                    : 930 MiB (89%)
Writing library                : x264 core 120
Audio
ID                             : 2
Format                         : AAC
Format/Info                    : Advanced Audio Codec
Format profile                 : LC
Codec ID                       : 40
Duration                       : 1h 40mn
Bit rate mode                  : Variable
Bit rate                       : 160 Kbps
Maximum bit rate               : 300 Kbps
Channel(s)                     : 2 channels
Channel positions              : Front: L R
Sampling rate                  : 48.0 KHz
Compression mode               : Lossy
Stream size                    : 114 MiB (11%)
Language                       : English
Please seed to keep this alive!		
28 Weeks Later.mp4 1.099 GB
Gathering some info...

Register and log in Isohunt and see no captcha anymore!

4000 symbols left
Hash db2ffa7049d8ccb35df5e81cb9e7e581de781850

Related torrents for "28 Weeks Later.mp4"