imdb
rating

7.8
Silver Linings Playbook

Silver Linings Playbook (2012)

Comedy, Drama, Romance

Full description

KATIE_The Men of Silver Linings Playbook_720p.HDTV.x264_2013_03_18_TTL

Size 831.859 MB   0 seeders     Added 2013-03-24 11:45:53

Stream torrent
Starting‥ You need BitLord! Get it from BitLord.com
To download or stream you need BitLord. Visit them at BitLord.com
As the torrent says Robert De Niro and Bradley Cooper.                                     

                                  								

											

Enjoy and please share.										

												

TTLTTLTTLTTLTTLTTLTTLTTLTTLTTLTTLTTLTTLTTLTTLTTLTTLTTLTTLTTL					

												

											

KATIE_The Men of Silver Linings Playbook_720p.HDTV.x264_2013_03_18_TTL.mkv
Format                           : Matroska
Format version                   : Version 2
File size                        : 793 MiB
Duration                         : 39mn 54s
Overall bit rate                 : 2 779 Kbps
Writing application              : HandBrake 0.9.5
Writing library                  : libmkv 0.6.4.1

Video
ID                               : 1
Format                           : AVC
Format/Info                      : Advanced Video Codec
Format profile                   : Main@L3.1
Format settings, CABAC           : Yes
Format settings, ReFrames        : 4 frames
Codec ID                         : V_MPEG4/ISO/AVC
Duration                         : 39mn 54s
Bit rate                         : 2 645 Kbps
Width                            : 1 280 pixels
Height                           : 720 pixels
Display aspect ratio             : 16:9
Frame rate mode                  : Variable
Frame rate                       : 29.970 fps
Color space                      : YUV
Chroma subsampling               : 4:2:0
Bit depth                        : 8 bits
Scan type                        : Progressive
Bits/(Pixel*Frame)               : 0.096
Stream size                      : 741 MiB (93%)
Writing library                  : x264 core 112

Audio                            : English
ID                               : 2
Format                           : AC-3
Format/Info                      : Audio Coding 3
Mode extension                   : CM (complete main)
Codec ID                         : A_AC3
Duration                         : 39mn 54s
Bit rate mode                    : Constant
Bit rate                         : 128 Kbps
Channel(s)                       : 2 channels
Channel positions                : Front: L R
Sampling rate                    : 48.0 KHz
Bit depth                        : 16 bits
Compression mode                 : Lossy
Stream size                      : 36.5 MiB (5%)
Default                          : Yes
Forced                           : No

		
KATIE_The Men of Silver Linings Playbook_720p.HDTV.x264_2013_03_18_TTL/KATIE_The Men of Silver Linings Playbook_720p.HDTV.x264_2013_03_18_TTL.mkv 831.857 MB
KATIE_The Men of Silver Linings Playbook_720p.HDTV.x264_2013_03_18_TTL/KATIE_The Men of Silver Linings Playbook_720p.HDTV.x264_2013_03_18_TTL.txt 2.133 KB
Gathering some info...

Register and log in Isohunt and see no captcha anymore!

4000 symbols left
Hash 97eaaefba9fb6ce087cf6ff31ac4252a31ff5c81

Related torrents for "KATIE_The Men of Silver Linings Playbook_720p.HDTV.x264_2013_03_18_TTL"

Torrent search:

hdtv