Les Sept Peches Capitaux[Seven Deadly Sins](1962).Godard_et_al.VHSRip.EngSubs [hellboytr].avi

Size 953.385 MB   5 seeders     Added 2013-03-24 15:00:29

Stream torrent
Starting‥ You need BitLord! Get it from BitLord.com
To download or stream you need BitLord. Visit them at BitLord.com
Seven directors each dramatize one of the seven deadly sins in a short film. In "Anger," a domestic argument over a fly in the Sunday soup escalates into nuclear war. In "Sloth," a movie star would rather pay someone to tie his shoe than bend over to do it himself, and he can't be bothered to accept a starlet's sexual favors. In "Gluttony," a peasant family on its way to the funeral of a relative who died from indigestion stops regularly to eat and drink en route, arriving in time to eat some more. In "Greed," a high-class prostitute refunds the price of a cadet's lottery ticket. In "Pride," an unfaithful wife finds reason to reform. And so on through lust and envy. 

VHSrip, so the quality isn't very good.

Directed by
Philippe de Broca	 	(segment "Gourmandise, La")
Claude Chabrol	 	(segment "Avarice, L'")
Jacques Demy	 	(segment "Luxure, La")
Sylvain Dhomme	 	(segment "Colère, La")
Max Douy	 	(co-director) (segment "Colère, La")
Jean-Luc Godard	 	(segment "Paresse, La")
Eugène Ionesco	 	(co-director)
Edouard Molinaro	 	(segment "Envie, L'")
Roger Vadim	 	(segment "Orgueil, L'") 
------------------------------------------------
General
Complete name : Les Sept Peches Capitaux[Seven Deadly Sins](1962).Godard_et_al.VHSRip.EngSubs [hellboytr].avi
Format : AVI
Format/Info : Audio Video Interleave
File size : 909 MiB
Duration : 1h 53mn
Overall bit rate : 1 120 Kbps
Writing application : VirtualDubMod 1.5.10.1 (build 2366/release)
Writing library : VirtualDubMod build 2366/release
Comment : Joined with EO VideoNew value: %d... /

Video
ID : 0
Format : MPEG-4 Visual
Format profile : Advanced Simple@L5
Format settings, BVOP : 1
Format settings, QPel : No
Format settings, GMC : No warppoints
Format settings, Matrix : Default (MPEG)
Codec ID : XVID
Codec ID/Hint : XviD
Duration : 1h 53mn
Bit rate : 1 047 Kbps
Width : 640 pixels
Height : 288 pixels
Display aspect ratio : 2.222
Frame rate : 23.976 fps
Color space : YUV
Chroma subsampling : 4:2:0
Bit depth : 8 bits
Scan type : Progressive
Compression mode : Lossy
Bits/(Pixel*Frame) : 0.237
Stream size : 850 MiB (93%)
Writing library : XviD 1.0.2 (UTC 2004-08-29)

Audio
ID : 1
Format : MPEG Audio
Format version : Version 1
Format profile : Layer 3
Codec ID : 55
Codec ID/Hint : MP3
Duration : 1h 53mn
Bit rate mode : Variable
Bit rate : 60.3 Kbps
Channel(s) : 1 channel
Sampling rate : 48.0 KHz
Compression mode : Lossy
Stream size : 49.0 MiB (5%)
Alignment : Aligned on interleaves
Interleave, duration : 24 ms (0.58 video frame)
Interleave, preload duration : 503 ms		
Les Sept Peches Capitaux[Seven Deadly Sins](1962).Godard_et_al.VHSRip.EngSubs [hellboytr].avi 953.385 MB
Gathering some info...

Register and log in Isohunt and see no captcha anymore!

4000 symbols left
Hash 92abcc742ef665d3808ea03fc3991f2b56805662