imdb
rating

6.4
Struck by Lightning

Struck by Lightning (2012)

Comedy, Drama

Full description

Struck.by.Lightning.2012.BRRip XViD juggs

Size 740.773 MB   0 seeders     Added 2013-03-24 20:15:31

Stream torrent
Starting‥ You need BitLord! Get it from BitLord.com
To download or stream you need BitLord. Visit them at BitLord.com
 http://www.imdb.com/title/tt1791614/

Format : AVI
Format/Info : Audio Video Interleave
File size : 699 MiB
Duration : 1h 23mn
Overall bit rate : 1 169 Kbps
Writing library : VirtualDub build 32842/release

Video
ID : 0
Format : MPEG-4 Visual
Format profile : Advanced Simple@L5
Format settings, BVOP : 4
Format settings, QPel : No
Format settings, GMC : No warppoints
Format settings, Matrix : Default (H.263)
Muxing mode : Packed bitstream
Codec ID : XVID
Codec ID/Hint : XviD
Duration : 1h 23mn
Bit rate : 1 032 Kbps
Width : 640 pixels
Height : 352 pixels
Display aspect ratio : 16:9
Frame rate : 23.976 fps
Color space : YUV
Chroma subsampling : 4:2:0
Bit depth : 8 bits
Scan type : Progressive
Compression mode : Lossy
Bits/(Pixel*Frame) : 0.191
Stream size : 617 MiB (88%)
Writing library : XviD 64

Audio
ID : 1
Format : MPEG Audio
Format version : Version 1
Format profile : Layer 3
Codec ID : 55
Codec ID/Hint : MP3
Duration : 1h 23mn
Bit rate mode : Constant
Bit rate : 128 Kbps
Channel(s) : 2 channels
Sampling rate : 44.1 KHz
Compression mode : Lossy
Stream size : 76.6 MiB (11%)
Alignment : Split accross interleaves
Interleave, duration : 42 ms (1.00 video frame)
Interleave, preload duration : 500 ms
Writing library : LAME3.99r
Encoding settings : -m s -V 4 -q 3 -lowpass 17 -b 128


Plot
A young man recounts the way he blackmailed his fellow classmates into contributing to his literary m
 
image 
image 
image		
Struck.by.Lightning.2012.BRRip XViD juggs/Struck.by.Lightning.2012.BRRip XViD juggs.avi 733.439 MB
Struck.by.Lightning.2012.BRRip XViD juggs/Torrent Downloaded From ExtraTorrent.com.txt 339 B
Struck.by.Lightning.2012.BRRip XViD juggs/sample.avi 7.334 MB
Gathering some info...

Register and log in Isohunt and see no captcha anymore!

4000 symbols left
Hash 3933a641f8c68457973bb0ca1e9db68f1afd2898

Related torrents for "Struck.by.Lightning.2012.BRRip XViD juggs"

Torrent search:

2012 bd