The State

The State (1993)

Comedy, Sketch/Improv

Full description

NCAA_Rd3_Iowa State VS Ohio State_2ND-half_720p.HDTV.x264_2013-03-24_TTL

Size 1.195 GB   0 seeders     Added 2013-03-24 23:45:37

Stream torrent
Starting‥ You need BitLord! Get it from 1BitLord.com
To download or stream you need BitLord. Visit them at BitLord.com
												

						                                      

Enjoy and please share.										

												

												

GO BUCKS!!!!!!!!!!!!!!!										

												

Beat the cats!!!!!!!!!!										

												

TTLTTLTTLTTLTTLTTLTTLTTLTTLTTLTTLTTLTTLTTLTTLTTLTTLTTLTTLTTLTTLTTL				

												

												

NCAA_Rd3_Iowa State VS Ohio State_2nd-half_720p.HDTV.x264_2013-03-24_TTL.mkv
Format                           : Matroska
File size                        : 1.11 GiB
Duration                         : 55mn 7s
Overall bit rate                 : 2 890 Kbps
Writing application              : HandBrake 0.9.5
Writing library                  : libmkv 0.6.4.1

Video
ID                               : 1
Format                           : AVC
Format/Info                      : Advanced Video Codec
Format profile                   : High@L3.1
Format settings, CABAC           : Yes
Format settings, ReFrames        : 4 frames
Muxing mode                      : Container profile=Unknown@3.1
Codec ID                         : V_MPEG4/ISO/AVC
Duration                         : 55mn 7s
Bit rate                         : 2 661 Kbps
Width                            : 1 280 pixels
Height                           : 720 pixels
Display aspect ratio             : 16:9
Frame rate mode                  : Variable
Frame rate                       : 29.970 fps
Color space                      : YUV
Chroma subsampling               : 4:2:0
Bit depth                        : 8 bits
Scan type                        : Progressive
Bits/(Pixel*Frame)               : 0.096
Stream size                      : 1.00 GiB (90%)
Writing library                  : x264 core 112

Audio                            : English
ID                               : 2
Format                           : AC-3
Format/Info                      : Audio Coding 3
Mode extension                   : CM (complete main)
Codec ID                         : A_AC3
Duration                         : 55mn 7s
Bit rate mode                    : Constant
Bit rate                         : 224 Kbps
Channel(s)                       : 2 channels
Channel positions                : Front: L R
Sampling rate                    : 48.0 KHz
Stream size                      : 88.3 MiB (8%)



		
NCAA_Rd3_Iowa State VS Ohio State_2ND-half_720p.HDTV.x264_2013-03-24_TTL/NCAA_Rd3_Iowa State VS Ohio State_2nd-half_720p.HDTV.x264_2013-03-24_TTL.mkv 1.195 GB
NCAA_Rd3_Iowa State VS Ohio State_2ND-half_720p.HDTV.x264_2013-03-24_TTL/NCAA_Rd3_Iowa State VS Ohio State_2nd-half_720p.HDTV.x264_2013-03-24_TTL.txt 1.989 KB
Gathering some info...

Register and log in Isohunt and see no captcha anymore!

4000 symbols left
Hash b29ec84a2fb490ac2477af8faaa6117f381d9222

Related torrents for "NCAA_Rd3_Iowa State VS Ohio State_2ND-half_720p.HDTV.x264_2013-03-24_TTL"

Torrent search:

hdtv