[ www.Speed.Cd ] - Brother.Bear.2.2006.iNTERNAL.BDRip.XViD-EXViDiNT

Size 747.374 MB   0 seeders     Added 2013-03-25 01:00:26

To download or stream you need BitLord. Visit them at BitLord.com
-

      the fast  and The Hottest Private Tracker on the net

Please Seed back to make the speed Faster!!
 ............ NFO .............
-                                                                                                     
       
     
     
       
       
     
     
                                         
                                         
                EXVID                    
                                         
         
                                         
         Filled the Archives             
                                         
         
                                         
                With:                    
                                         
         
                                         
                                    
     E240                           
                                    
     SP               (C) 2009      
                                         
     
     
     
                                                                                  
                                                                                   
            Brother.Bear.2.2006.iNTERNAL.BDRip.XViD-EXViDiNT                        
                                                                                   
                                                                                  
     
                                                                                               
EXViD aims to iNTERNAL those releases which have been lost in the archives.
EXViD aims to PRE non-internal releases which have poor sources and are likely skipped by others. 
http://www.imdb.com/title/tt0465925/
Subtitles: EN, EN HI, FR, ES, DE, NL, IT
Date: 2013.03

Director: Ben Gluck

Genres: Animation |  Adventure |  Comedy |  Family |  Fantasy

Plot:
Kenai, still a bear and Koda strongly believe that they do not need any girl, just each other.
Kenai dreams of Nita, a girl he had met and saved when he was very young. After giving her an
amulet, and promising they'd be friends forever, Nita leaves for her home and Kenai never sees
her again. We then see Nita, now grown up, beautiful and preparing her her wedding. However,
the ancestors are not pleased, as Nita is already tied to Kenai. The only way for Nita to break
their bond and be happily married is to journey to the very place where Kenai gave her the
amulet and burn it together. As Kenai, Nita and Koda journey to the place together, Koda cannot
help but feel worried that Kenai might abandon him altogether for Nita. Will Nita break the bond
she shares with Kenai and marry another? Will Koda be abandoned by his big brother?

Cast:
Patrick Dempsey 	 ... 	Kenai (voice) 
Mandy Moore 	 ... 	Nita (voice) 
Jeremy Suarez 	 ... 	Koda (voice) 
Rick Moranis 	 ... 	Rutt (voice) 
Dave Thomas 	 ... 	Tuke (voice) 
Andrea Martin 	 ... 	Anda (voice) 
Catherine O'Hara 	 ... 	Kata (voice) 
Wanda Sykes 	 ... 	Innoko (voice) 
Wendie Malick 	 ... 	Aunt Siqiniq (voice) 
Kathy Najimy 	 ... 	Aunt Taqqiq (voice) 
Michael Clarke Duncan 	 ... 	Tug (voice) 
Jim Cummings 	 ... 	Bering / Chilkoot (voice) 
Jeff Bennett 	 ... 	Atka (voice) 
Tress MacNeille 	 ... 	Hoonah (voice) 
Jack Weber 	 ... 	Young Kenai (voice)

Stats:
Format                           : AVI
Format/Info                      : Audio Video Interleave
File size                        : 700 MiB
Duration                         : 1h 13mn
Overall bit rate                 : 1 335 Kbps
Writing application              : VirtualDubMod 1.5.10.2 (build 2540/release)
Writing library                  : VirtualDubMod build 2540/release

Video
ID                               : 0
Format                           : MPEG-4 Visual
Format profile                   : Advanced Simple@L5
Format settings, BVOP            : Yes
Format settings, QPel            : No
Format settings, GMC             : No warppoints
Format settings, Matrix          : Default (H.263)
Muxing mode                      : Packed bitstream
Codec ID                         : XVID
Codec ID/Hint                    : XviD
Duration                         : 1h 13mn
Bit rate                         : 1 168 Kbps
Width                            : 624 pixels
Height                           : 352 pixels
Display aspect ratio             : 16:9
Frame rate                       : 23.976 fps
Color space                      : YUV
Chroma subsampling               : 4:2:0
Bit depth                        : 8 bits
Scan type                        : Progressive
Bits/(Pixel*Frame)               : 0.222
Stream size                      : 612 MiB (87%)
Writing library                  : XviD 64

Audio
ID                               : 1
Format                           : MPEG Audio
Format version                   : Version 1
Format profile                   : Layer 3
Mode                             : Joint stereo
Mode extension                   : MS Stereo
Codec ID                         : 55
Codec ID/Hint                    : MP3
Duration                         : 1h 13mn
Bit rate mode                    : Variable
Bit rate                         : 155 Kbps
Minimum bit rate                 : 160 Kbps
Channel(s)                       : 2 channels
Sampling rate                    : 48.0 KHz
Stream size                      : 81.2 MiB (12%)
Alignment                        : Aligned on interleaves
Interleave, duration             : 24 ms (0.58 video frame)
Interleave, preload duration     : 119 ms
Writing library                  : LAME4.0a
Encoding settings                : -m j -V 4 -q 5 -lowpass 18 --vbr-old -b 160




Release notes:
enjoy!

Looking for:
75TB+ Archives
DUTCH/FLEMiSH Archives
                                                                                                    
Greets: CRBS EPiSODE FiCO FLS iLS KLASSiGER LiPSYNC MADE NODLABS RUNNER SPRiNTER      
   

                                                                    ASCII DONE BY XX^NFO 2oo9		
[ www.Speed.Cd ] - Brother.Bear.2.2006.iNTERNAL.BDRip.XViD-EXViDiNT/exvid-brotherbear2.nfo 8.29 KB
[ www.Speed.Cd ] - Brother.Bear.2.2006.iNTERNAL.BDRip.XViD-EXViDiNT/exvid-brotherbear2.r00 15 MB
[ www.Speed.Cd ] - Brother.Bear.2.2006.iNTERNAL.BDRip.XViD-EXViDiNT/exvid-brotherbear2.r01 15 MB
Gathering some info...

Register and log in Isohunt and see no captcha anymore!

4000 symbols left
Hash 15d5f8dfea48aaaceedaeb46f662c9dbe820c0d6