imdb
rating

2.9
Scavengers

Scavengers (2013)

Action, Science Fiction

Full description
quality   x264 bd hd fullhd

Scavengers 2013 BRRip 720p x264 AAC - PRiSTiNE [P2PDL] Verified

Size 571.62 MB   0 seeders     Added 2013-03-25 04:45:19

Stream torrent
Starting‥ You need BitLord! Get it from BitLord.com
To download or stream you need BitLord. Visit them at BitLord.com
_________________________  Visit us at _________________________
  
http://p2pdl.com  ____________________________  http://p2pdl.com


Scavengers 2013 BRRip 720p x264 AAC - PRiSTiNE

Genre: Sci-Fi
Plot: A team of space scavengers discovers superior 
alien technology that threatens the balance of the 
known universe. Hotly pursued by a rival crew of 
intergalactic mercenaries, the Revelator crew must 
fight through the deepest reaches of space to locate 
and protect the life-altering device.
Director: Travis Zariwny
Stars: John Lee Ames, Roark Critchlow, Brett Curtze
Rated: Rated PG-13

Info: 
http://www.imdb.com/title/tt1564369/

General
Complete name                  : Scavengers 2013 BRRip 720p x264 AAC - PRiSTiNE.mp4
Format                         : MPEG-4
Format profile                 : Base Media
File size                      : 536 MiB
Duration                       : 1h 33mn
Overall bit rate mode          : Variable
Overall bit rate               : 801 Kbps

Source                         : 720p BluRay VETO (Thanks)

Video
Format                         : AVC
Format/Info                    : Advanced Video Codec
Format profile                 : High@L4.1
Codec ID/Info                  : Advanced Video Coding
Bit rate                       : 715 Kbps
Width                          : 1 280 pixels
Height                         : 536 pixels
Display aspect ratio           : 2.40:1
Frame rate                     : 23.976 fps
Bit depth                      : 8 bits
Stream size                    : 477 MiB (89%)
Writing library                : x264 core 129 r2245 bc13772

Audio
Format                         : AAC
Format/Info                    : Advanced Audio Codec
Bit rate mode                  : Variable
Bit rate                       : 84.0 Kbps
Channel(s)                     : 2 channels
Channel positions              : Front: L R
Sampling rate                  : 48.0 KHz / 24.0 KHz
Stream size                    : 56.1 MiB (10%)
Language                       : English

Subtitle                       : No

Screens: 
image 
image 
image 
image 
image

----------------------------------------------------------------------------------------------------
Encoded using revolutionary 10bit encoding, which enables us to provide you more crispier 
and sharper images at small sizes, just make sure you follow our instructions without a fault.
Recommend to you to use latest version of VLC player. Install K-Lite Codec Pack or shark007 codecs
in case of any kind of problem in playback (For non-VLC Media Player users). Alternatively, install
Core AVC codecs, the fastest decoder that there is coupled with Community Center Codec Pack and play
on Windows Media Player Classic. Check sample to be sure.
Enjoy!

Encoder Notes:Looking For Early Access To Anything You Can Provide DVDScr, R5, DVDR, BluRay, Direct
Audio, Music Releases and Seedboxes. We require dedicated servers, so as to do more 
and fast releases of movies.
If You Got anything to offer please contact us at "prg@hush.com".		
Scavengers 2013 BRRip 720p x264 AAC - PRiSTiNE [P2PDL]/Scavengers 2013 BRRip 720p x264 AAC - PRiSTiNE/Scavengers 2013 BRRip 720p x264 AAC - PRiSTiNE.mp4 561.817 MB
Scavengers 2013 BRRip 720p x264 AAC - PRiSTiNE [P2PDL]/Sample.mp4 9.797 MB
Scavengers 2013 BRRip 720p x264 AAC - PRiSTiNE [P2PDL]/Scavengers 2013 BRRip 720p x264 AAC - PRiSTiNE/Scavengers 2013 BRRip 720p x264 AAC - PRiSTiNE.nfo 5.672 KB
Gathering some info...

Register and log in Isohunt and see no captcha anymore!

4000 symbols left
Hash 6023e6641561f25244c6a3fbaa7941b7005700e2

Related torrents for "Scavengers 2013 BRRip 720p x264 AAC - PRiSTiNE [P2PDL]"

Torrent search:

x264 hd bd 2013