imdb
rating

6.4
Struck by Lightning

Struck by Lightning (2012)

Comedy, Drama

Full description

Struck By Lightning 2012 BRRIP Xvid AC3 -BHRG

Size 1.526 GB   0 seeders     Added 2013-03-25 08:00:51

Stream torrent
Starting‥ You need BitLord! Get it from BitLord.com
To download or stream you need BitLord. Visit them at BitLord.com
	File size                                : 1.40 GiB
Duration                                 : 1h 23mn
Overall bit rate                         : 2 393 Kbps

Video
ID                                       : 0
Format                                   : MPEG-4 Visual
Format profile                           : Advanced Simple@L5
Format settings, BVOP                    : 2
Format settings, QPel                    : No
Format settings, GMC                     : No warppoints
Format settings, Matrix                  : Default (H.263)
Codec ID                                 : XVID
Codec ID/Hint                            : XviD
Duration                                 : 1h 23mn
Bit rate                                 : 1 937 Kbps
Width                                    : 720 pixels
Height                                   : 400 pixels
Display aspect ratio                     : 16:9
Frame rate                               : 23.976 fps
Color space                              : YUV
Chroma subsampling                       : 4:2:0
Bit depth                                : 8 bits
Scan type                                : Progressive
Compression mode                         : Lossy
Bits/(Pixel*Frame)                       : 0.281
Stream size                              : 1.13 GiB (81%)
Writing library                          : XviD 1.2.1 (UTC 2008-12-04)

Audio
ID                                       : 1
Format                                   : AC-3
Format/Info                              : Audio Coding 3
Mode extension                           : CM (complete main)
Format settings, Endianness              : Big
Codec ID                                 : 2000
Duration                                 : 1h 23mn
Bit rate mode                            : Constant
Bit rate                                 : 448 Kbps
Channel(s)                               : 6 channels
Channel positions                        : Front: L C R, Side: L R, LFE
Sampling rate                            : 48.0 KHz
Bit depth                                : 16 bits
Compression mode                         : Lossy
Stream size                              : 268 MiB (19%)
Alignment                                : Aligned on interleaves
Interleave, duration                     : 64 ms (1.53 video frames)
Interleave, preload duration             : 192 ms
Title                                    : Struck.by.Lightning.2012.LIMITED.720p.BluRay.X264-AMIABLE - [1] English




source >>>>>>Struck.by.Lightning.2012.LIMITED.720p.BluRay.X264-AMIABLE Thanks

sample provided
		
Struck By Lightning 2012 BRRIP Xvid AC3 -BHRG/Struck By Lightning 2012 BRRIP Xvid AC3 -BHRG sample.avi 24.543 MB
Struck By Lightning 2012 BRRIP Xvid AC3 -BHRG/Struck By Lightning 2012 BRRIP Xvid AC3 -BHRG.avi 1.501 GB
Struck By Lightning 2012 BRRIP Xvid AC3 -BHRG/www.RARBG.com.txt 45 B
Gathering some info...

Register and log in Isohunt and see no captcha anymore!

4000 symbols left
Hash ca2257e725d876f138d64eba3836620d3cc9ea6f

Related torrents for "Struck By Lightning 2012 BRRIP Xvid AC3 -BHRG"

Torrent search:

2012 bd