imdb
rating

3.7
The Wicked

The Wicked (2013)

Fantasy, Horror, Thriller

Full description
quality   dvdrip dvdr x264 hd bd h264

[ www.Speed.Cd ] - The Wicked 2013-Dvdrip-H264-MRFIXIT

Size 794.586 MB   0 seeders     Added 2013-03-25 15:31:52

Stream torrent
Starting‥ You need BitLord! Get it from BitLord.com
To download or stream you need BitLord. Visit them at BitLord.com
-
 
http://www.Speed. Cd       the fast  and The Hottest Private Tracker on the net 
http://www.Speed. Cd

Please Seed back to make the speed Faster!!
 ............ NFO .............
-
 
http://www.Speed. Cd[URL=http://img822.imageshack.us/i/wickeddvdcover.jpg/][IMG]image[/IMG][/URL]


MRFIXIT is proud to present:   The Wicked 2013 PAL DVDR-iNVANDRAREN
Source:  The Wicked 2013 PAL DVDR-iNVANDRAREN

[URL=http://img204.imageshack.us/i/27867621.png/][IMG]image[/IMG][/URL]

Complete name                            : C:The Wicked 2013-Dvdrip-H264-MRFIXIT.avi
Format                                   : AVI
Format/Info                              : Audio Video Interleave
File size                                : 746 MiB
Duration                                 : 1h 40mn
Overall bit rate                         : 1 037 Kbps
Writing library                          : VirtualDub build 32842/release

[URL=http://img713.imageshack.us/i/32031619.png/][IMG]image[/IMG][/URL]

ID                                       : 0
Format                                   : AVC
Format/Info                              : Advanced Video Codec
Format profile                           : High@L3.0
Format settings, CABAC                   : Yes
Format settings, ReFrames                : 3 frames
Codec ID                                 : H264
Duration                                 : 1h 40mn
Bit rate                                 : 900 Kbps
Width                                    : 720 pixels
Height                                   : 384 pixels
Display aspect ratio                     : 1.85:1
Frame rate                               : 25.000 fps
Color space                              : YUV
Chroma subsampling                       : 4:2:0
Bit depth                                : 8 bits
Scan type                                : Progressive
Bits/(Pixel*Frame)                       : 0.130
Stream size                              : 647 MiB (87%)
Writing library                          : x264 core 130 r2273kMod b3065e6
Encoding settings                        : cabac=1 / ref=3 / deblock=1:0:0 / analyse=0x3:0x13 / me=umh / subme=7 / psy=1 / fade_compensate=0.00 / psy_rd=1.00:0.00 / mixed_ref=1 / me_range=16 / chroma_me=1 / trellis=1 / 8x8dct=1 / cqm=0 / deadzone=21,11 / fast_pskip=1 / chroma_qp_offset=-2 / threads=6 / lookahead_threads=6 / sliced_threads=1 / slices=6 / nr=0 / decimate=1 / interlaced=0 / bluray_compat=0 / constrained_intra=0 / bframes=0 / weightp=2 / keyint=250 / keyint_min=25 / scenecut=40 / intra_refresh=0 / rc=2pass / mbtree=0 / bitrate=900 / ratetol=1.0 / qcomp=0.60 / qpmin=10 / qpmax=51 / qpstep=4 / cplxblur=20.0 / qblur=0.5 / ip_ratio=1.40 / aq=1:1.00

[URL=http://img684.imageshack.us/i/14258198.png/][IMG]image[/IMG][/URL]

ID                                       : 1
Format                                   : MPEG Audio
Format version                           : Version 1
Format profile                           : Layer 3
Mode                                     : Joint stereo
Codec ID                                 : 55
Codec ID/Hint                            : MP3
Duration                                 : 1h 40mn
Bit rate mode                            : Constant
Bit rate                                 : 128 Kbps
Channel(s)                               : 2 channels
Sampling rate                            : 48.0 KHz
Compression mode                         : Lossy
Stream size                              : 92.1 MiB (12%)
Alignment                                : Split accross interleaves
Interleave, duration                     : 40 ms (1.00 video frame)
Interleave, preload duration             : 500 ms
Writing library                          : LAME3.99.5 

[URL=http://img36.imageshack.us/i/19805875.png/][IMG]image[/IMG][/URL]
 
http://www.imdb.com/title/tt1986994/

[URL=http://img225.imageshack.us/i/39945039.png/][IMG]image[/IMG][/URL]

A Group of teenagers test the legend of an immortal witch and get more than they bargained for. 

[URL=http://img405.imageshack.us/i/70975872.png/][IMG]image[/IMG][/URL]

Devon Werkheiser
Nicole Forester
Justin Deeley
Caitlin Carmichael
Jamie Kaler
Cassie Keller
Chase Maser
Jess Adams
Jackelyn Gauci
Diana Hopper
Carlos Faison
Celeste Risko
Robert Young

[URL=http://img819.imageshack.us/i/94723758.png/][IMG]image[/IMG][/URL]

[URL=http://img6.imageshack.us/i/21554973.jpg/][IMG]image[/IMG][/URL]
[URL=http://img14.imageshack.us/i/17995186.jpg/][IMG]image[/IMG][/URL]
[URL=http://img7.imageshack.us/i/97984902.jpg/][IMG]image[/IMG][/URL]
[URL=http://img837.imageshack.us/i/39382951.jpg/][IMG]image[/IMG][/URL]
[URL=http://img11.imageshack.us/i/72663894.jpg/][IMG]image[/IMG][/URL]
[URL=http://img5.imageshack.us/i/54130937.jpg/][IMG]image[/IMG][/URL]

[URL=http://img834.imageshack.us/i/greets3.png/][IMG]image[/IMG][/URL]

voltage, DQ1, LEGION, PRESTiGE, 26k, RemixHD, UNiQUE, Legend-Rg, DiNGiE, Relentle$$,
Bigguy, paranoid53, HIVE-CM8, TRINITY, Rx, INSPiRAL, HOPE, tommiecook, Wayne, Seedling, Quagmire		
[ www.Speed.Cd ] - The Wicked 2013-Dvdrip-H264-MRFIXIT/The Wicked 2013-Dvdrip-H264-MRFIXIT-sample.avi 11.963 MB
[ www.Speed.Cd ] - The Wicked 2013-Dvdrip-H264-MRFIXIT/The Wicked 2013-Dvdrip-H264-MRFIXIT.avi 782.617 MB
[ www.Speed.Cd ] - The Wicked 2013-Dvdrip-H264-MRFIXIT/The Wicked 2013-Dvdrip-H264-MRFIXIT.nfo 5.724 KB
Gathering some info...

Register and log in Isohunt and see no captcha anymore!

4000 symbols left
Hash 9e7738f7aea0be33b4dcfef8be2d51e0da9bad3d

Related torrents for "[ www.Speed.Cd ] - The Wicked 2013-Dvdrip-H264-MRFIXIT"

Torrent search:

dvdrip h264 2013