[ www.Speed.Cd ] - NOVA.Battle.Of.The.X-Planes.2003.iNTERNAL.DVDRip.XviD-EXViDiNT

Size 1.532 GB   0 seeders     Added 2013-03-25 22:01:02

To download or stream you need BitLord. Visit them at BitLord.com
-
 
http://www.Speed. Cd       the fast  and The Hottest Private Tracker on the net 
http://www.Speed. Cd

Please Seed back to make the speed Faster!!
 ............ NFO .............
-
 
http://www.Speed. Cd                                                                                                     
       
     
     
       
       
     
     
                                         
                                         
                EXVID                    
                                         
         
                                         
         Filled the Archives             
                                         
         
                                         
                With:                    
                                         
         
                                         
                                    
     E240                           
                                    
     SP               (C) 2009      
                                         
     
     
     
                                                                                  
                                                                                   
                                                                                    
                                                                                   
                                                                                  
   

NOVA.Battle.Of.The.X-Planes.2003.iNTERNAL.DVDRip.XviD-EXViDiNT
                                                                                               
EXViD aims to iNTERNAL those releases which have been lost in the archives.
EXViD aims to PRE non-internal releases which have poor sources and are likely skipped by others. 
http://www.imdb.com/title/tt0986075/
Subtitles: None
Date: 01.13

Genre: Docu
Plot: Nova takes an inside look at a competition between Boeing and Lockheed Martin to 
develop the next generation of American fighter aircraft.

Stats:
General
Format                           : AVI
Format/Info                      : Audio Video Interleave
File size                        : 1.36 GiB
Duration                         : 1h 55mn
Overall bit rate                 : 1 692 Kbps
Writing application              : VirtualDubMod 1.5.10.2 (build 2542/release)
Writing library                  : VirtualDubMod build 2542/release

Video
ID                               : 0
Format                           : MPEG-4 Visual
Format profile                   : Advanced Simple@L5
Format settings, BVOP            : Yes
Format settings, QPel            : No
Format settings, GMC             : No warppoints
Format settings, Matrix          : Default (H.263)
Codec ID                         : XVID
Codec ID/Hint                    : XviD
Duration                         : 1h 55mn
Bit rate                         : 1 488 Kbps
Width                            : 624 pixels
Height                           : 464 pixels
Display aspect ratio             : 4:3
Frame rate                       : 29.970 fps
Resolution                       : 8 bits
Colorimetry                      : 4:2:0
Scan type                        : Progressive
Bits/(Pixel*Frame)               : 0.171
Stream size                      : 1.20 GiB (88%)
Writing library                  : XviD 61

Audio
ID                               : 1
Format                           : AC-3
Format/Info                      : Audio Coding 3
Format_Settings_ModeExtension    : CM (complete main)
Codec ID                         : 2000
Duration                         : 1h 55mn
Bit rate mode                    : Constant
Bit rate                         : 192 Kbps
Channel(s)                       : 2 channels
Channel positions                : Front: L R
Sampling rate                    : 48.0 KHz
Stream size                      : 159 MiB (11%)
Alignment                        : Split accross interleaves
Interleave, duration             : 33 ms (1.00 video frame)
Interleave, preload duration     : 500 ms




Release notes:
enjoy!

Looking for:
75TB+ Archives
                                                                                                    
Greets: CRBS EPiSODE FiCO FLS iLS KLASSiGER LiPSYNC MADE NODLABS RUNNER SPRiNTER
   

                                                                    ASCII DONE BY XX^NFO 2oo9     
 

RLS-Crc: 43414E445953484F50:9E		
[ www.Speed.Cd ] - NOVA.Battle.Of.The.X-Planes.2003.iNTERNAL.DVDRip.XviD-EXViDiNT/CD1/exvid-xplane-cd1.r00 15 MB
[ www.Speed.Cd ] - NOVA.Battle.Of.The.X-Planes.2003.iNTERNAL.DVDRip.XviD-EXViDiNT/CD1/exvid-xplane-cd1.r01 15 MB
[ www.Speed.Cd ] - NOVA.Battle.Of.The.X-Planes.2003.iNTERNAL.DVDRip.XviD-EXViDiNT/CD1/exvid-xplane-cd1.r02 15 MB
Gathering some info...

Register and log in Isohunt and see no captcha anymore!

4000 symbols left
Hash 37a13b3fa619908d8bc105db30b553d4433bed45