The March

The March (2014)

Full description

Ponds Femina Miss India (2013) 24th March H.264-AAC-MP4 TEAM IcTv XCLUSIVE.mp4

Size 1.983 GB   0 seeders     Added 2013-03-26 10:30:28

Stream torrent
Starting‥ You need BitLord! Get it from BitLord.com
To download or stream you need BitLord. Visit them at BitLord.com
 image
 
image
 
image
 
image
 
image
 
image

Media Info - 
Video
ID : 1
Format : AVC
Format/Info : Advanced Video Codec
Format profile : Main@L3.1
Format settings, CABAC : Yes
Format settings, ReFrames : 4 frames
Codec ID : avc1
Codec ID/Info : Advanced Video Coding
Duration : 1h 36mn
Bit rate mode : Variable
Bit rate : 2 564 Kbps
Width : 1 280 pixels
Height : 600 pixels
Display aspect ratio : 2.2:1
Frame rate mode : Constant
Frame rate : 25.000 fps
Color space : YUV
Chroma subsampling : 4:2:0
Bit depth : 8 bits
Scan type : Progressive
Bits/(Pixel*Frame) : 0.134
Stream size : 1.74 GiB (94%)
Writing library : x264 core 120

Audio
ID : 2
Format : AAC
Format/Info : Advanced Audio Codec
Format profile : LC
Codec ID : 40
Duration : 1h 36mn
Bit rate mode : Variable
Bit rate : 160 Kbps
Maximum bit rate : 204 Kbps
Channel(s) : 2 channels
Channel positions : Front: L R
Sampling rate : 44.1 KHz
Compression mode : Lossy
Stream size : 111 MiB (6%)
Language : English

Ripper : Lottery

Seeding 24x7... Extreme Seeding...


Enjoy!
		
Ponds Femina Miss India (2013) 24th March H.264-AAC-MP4 TEAM IcTv XCLUSIVE.mp4 1.983 GB
Gathering some info...

Register and log in Isohunt and see no captcha anymore!

4000 symbols left
Hash 596bb85f9e95fae1c90c4d9c741edb725cc20e85

Related torrents for "Ponds Femina Miss India (2013) 24th March H.264-AAC-MP4 TEAM IcTv XCLUSIVE.mp4"

Torrent search:

2013