Столичани в повече

Столичани в повече

Full description

Столичани в повече s02e02.avi

Size 1.315 GB   0 seeders     Added 2013-03-26 13:27:15

Stream torrent
Starting‥ You need BitLord! Get it from BitLord.com
To download or stream you need BitLord. Visit them at BitLord.com
Format                                   : AVI
Format/Info                              : Audio Video Interleave
Format profile                           : OpenDML
File size                                : 1.26 GiB
Duration                                 : 45mn 52s
Overall bit rate                         : 3 936 Kbps
Writing application                      : Lavf52.39.1

Video
ID                                       : 0
Format                                   : MPEG-4 Visual
Format profile                           : Advanced Simple@L1
Format settings, BVOP                    : 2
Format settings, QPel                    : No
Format settings, GMC                     : No warppoints
Format settings, Matrix                  : Default (H.263)
Codec ID                                 : DX50
Codec ID/Hint                            : DivX 5
Duration                                 : 45mn 51s
Bit rate                                 : 3 794 Kbps
Width                                    : 1 280 pixels
Height                                   : 720 pixels
Display aspect ratio                     : 16:9
Frame rate                               : 25.000 fps
Color space                              : YUV
Chroma subsampling                       : 4:2:0
Bit depth                                : 8 bits
Scan type                                : Progressive
Compression mode                         : Lossy
Bits/(Pixel*Frame)                       : 0.165
Stream size                              : 1.25 GiB (96%)

Audio
Format                                   : MPEG Audio
Format version                           : Version 1
Format profile                           : Layer 3
Mode                                     : Joint stereo
Codec ID/Hint                            : MP3
Average Duration                         : 45minutes
Bit rate mode                            : Constant
Bit rate                                 : 128 Kbps
Channel(s)                               : 2 channels
Sampling rate                            : 44.1 KHz
Compression mode                         : Lossy
Stream size                              : 42.0 MiB (3%)
Alignment                                : Aligned on interleaves
Interleave, duration                     : 26 ms (0.65 video frame)-------------------------------------Torrent downloaded from http://thepiratebay.se
Столичани в повече s02e02.avi 1.315 GB
Gathering some info...

Register and log in Isohunt and see no captcha anymore!

4000 symbols left
Hash 28afdf121e231351e7e3b82176d18d3cf0bfd0d9

Related torrents for "Столичани в повече s02e02.avi"

Torrent search:

season 02 episode 02