imdb
rating

7.3
The Croods

The Croods (2013)

Adventure, Animation, Comedy, Fantasy, Family

Full description

The Croods 2013 Cam XviD Feel-Free Verified

Size 954.921 MB   19 seeders     Added 2013-03-27 18:01:36

Stream torrent
Starting‥ You need BitLord! Get it from 1BitLord.com
To download or stream you need BitLord. Visit them at BitLord.com
Format                                   : AVI
Format/Info                              : Audio Video Interleave
File size                                : 910 MiB
Duration                                 : 1h 29mn
Overall bit rate                         : 1 422 Kbps

Video
ID                                       : 0
Format                                   : MPEG-4 Visual
Format profile                           : Advanced Simple@L5
Format settings, BVOP                    : 1
Format settings, QPel                    : No
Format settings, GMC                     : No warppoints
Format settings, Matrix                  : Default (H.263)
Codec ID                                 : XVID
Codec ID/Hint                            : XviD
Duration                                 : 1h 29mn
Bit rate                                 : 1 252 Kbps
Width                                    : 640 pixels
Height                                   : 240 pixels
Display aspect ratio                     : 2.667
Frame rate                               : 25.000 fps
Color space                              : YUV
Chroma subsampling                       : 4:2:0
Bit depth                                : 8 bits
Scan type                                : Progressive
Compression mode                         : Lossy
Bits/(Pixel*Frame)                       : 0.326
Stream size                              : 801 MiB (88%)
Writing library                          : XviD 1.2.1 (UTC 2008-12-04)

Audio
ID                                       : 1
Format                                   : AC-3
Format/Info                              : Audio Coding 3
Mode extension                           : CM (complete main)
Codec ID                                 : 2000
Duration                                 : 1h 29mn
Bit rate mode                            : Constant
Bit rate                                 : 160 Kbps
Channel(s)                               : 2 channels
Channel positions                        : Front: L R
Sampling rate                            : 48.0 KHz
Bit depth                                : 16 bits
Compression mode                         : Lossy
Stream size                              : 102 MiB (11%)
Alignment                                : Aligned on interleaves
Interleave, duration                     : 40 ms (1.00 video frame)
Interleave, preload duration             : 512 ms

Screens: 
image 
image 
image		
The Croods 2013 Cam XviD Feel-Free/The Croods 2013 Cam XviD Feel-Free.avi 954.157 MB
The Croods 2013 Cam XviD Feel-Free/vlcsnap-2013-03-27-10h31m33s86.png 344.187 KB
The Croods 2013 Cam XviD Feel-Free/vlcsnap-2013-03-27-10h31m44s201.png 168.536 KB
Gathering some info...

Register and log in Isohunt and see no captcha anymore!

4000 symbols left
Hash bc4ada6d876ae9d5513c58b89674610388440314

Related torrents for "The Croods 2013 Cam XviD Feel-Free"

Torrent search:

cam 2013