imdb
rating

7.3
The Croods

The Croods (2013)

Adventure, Animation, Comedy, Fantasy, Family

Full description

The.Croods.TS.XviD.Feel-Free

Size 883.284 MB   0 seeders     Added 2013-03-27 21:01:35

Stream torrent
Starting‥ You need BitLord! Get it from 1BitLord.com
To download or stream you need BitLord. Visit them at BitLord.com
Format                                   : AVI
Format/Info                              : Audio Video Interleave
File size                                : 842 MiB
Duration                                 : 1h 29mn
Overall bit rate mode                    : Variable
Overall bit rate                         : 1 315 Kbps
Writing application                      : VirtualDubMod 1.5.10.2 (build 2540/release)
Writing library                          : VirtualDub build 32817/release

Video
ID                                       : 0
Format                                   : MPEG-4 Visual
Format profile                           : Advanced Simple@L5
Format settings, BVOP                    : 2
Format settings, QPel                    : No
Format settings, GMC                     : No warppoints
Format settings, Matrix                  : Default (H.263)
Muxing mode                              : Packed bitstream
Codec ID                                 : XVID
Codec ID/Hint                            : XviD
Duration                                 : 1h 29mn
Bit rate                                 : 1 177 Kbps
Width                                    : 640 pixels
Height                                   : 272 pixels
Display aspect ratio                     : 2.35:1
Frame rate                               : 25.000 fps
Color space                              : YUV
Chroma subsampling                       : 4:2:0
Bit depth                                : 8 bits
Scan type                                : Progressive
Compression mode                         : Lossy
Bits/(Pixel*Frame)                       : 0.270
Stream size                              : 753 MiB (90%)
Writing library                          : XviD 64

Audio
ID                                       : 1
Format                                   : MPEG Audio
Format version                           : Version 1
Format profile                           : Layer 3
Mode                                     : Joint stereo
Mode extension                           : MS Stereo
Codec ID                                 : 55
Codec ID/Hint                            : MP3
Duration                                 : 1h 29mn
Bit rate mode                            : Variable
Bit rate                                 : 125 Kbps
Channel(s)                               : 2 channels
Sampling rate                            : 48.0 KHz
Compression mode                         : Lossy
Stream size                              : 80.0 MiB (10%)
Alignment                                : Aligned on interleaves
Interleave, duration                     : 24 ms (0.60 video frame)
Interleave, preload duration             : 436 ms

Screens: 
image 
image 
image 
image		
The.Croods.TS.XviD.Feel-Free/The.Croods.TS.XviD.Feel-Free.avi 882.455 MB
The.Croods.TS.XviD.Feel-Free/vlcsnap-2013-03-27-15h03m27s156.png 314.09 KB
The.Croods.TS.XviD.Feel-Free/vlcsnap-2013-03-27-15h04m01s246.png 152.088 KB
Gathering some info...

Register and log in Isohunt and see no captcha anymore!

4000 symbols left
Hash 6e1b88424d2d29090db4fec917a5a408960e2293

Related torrents for "The.Croods.TS.XviD.Feel-Free"

Torrent search:

telesync 2013