Mama

Mama (2015)

Drama

Full description

Y Tu Mama Tambien [2001] 720p BRRip H264 AC3 - CODY

Size 2.036 GB   26 seeders     Added 2013-03-28 01:01:32

Stream torrent
Starting‥ You need BitLord! Get it from BitLord.com
To download or stream you need BitLord. Visit them at BitLord.com
General
Complete name                            : Y Tu Mama Tambien [2001] 720p BRRip H264 AC3 - CODY.mp4
Format                                   : MPEG-4
Format profile                           : Base Media
Codec ID                                 : isom
File size                                : 1.90 GiB
Duration                                 : 1h 45mn
Overall bit rate mode                    : Variable
Overall bit rate                         : 2 569 Kbps
Encoded date                             : UTC 2012-10-17 00:28:54

Video
ID                                       : 1
Format                                   : AVC
Format/Info                              : Advanced Video Codec
Format profile                           : High@L4.1
Format settings, CABAC                   : Yes
Format settings, ReFrames                : 5 frames
Codec ID                                 : avc1
Codec ID/Info                            : Advanced Video Coding
Duration                                 : 1h 45mn
Bit rate mode                            : Variable
Bit rate                                 : 2 120 Kbps
Maximum bit rate                         : 20.0 Mbps
Width                                    : 1 280 pixels
Height                                   : 688 pixels
Display aspect ratio                     : 1.860
Frame rate mode                          : Constant
Frame rate                               : 24.000 fps
Color space                              : YUV
Chroma subsampling                       : 4:2:0
Bit depth                                : 8 bits
Scan type                                : Progressive
Bits/(Pixel*Frame)                       : 0.100
Stream size                              : 1.56 GiB (82%)
Writing library                          : x264 core 125 r2200 999b753
Encoding settings                        : rc=2pass
Color primaries                          : Generic film

Audio
ID                                       : 2
Format                                   : AC-3
Format/Info                              : Audio Coding 3
Mode extension                           : CM (complete main)
Codec ID                                 : ac-3
Duration                                 : 1h 45mn
Bit rate mode                            : Constant
Bit rate                                 : 448 Kbps
Channel(s)                               : 6 channels
Channel positions                        : Front: L C R, Side: L R, LFE
Sampling rate                            : 48.0 KHz
Bit depth                                : 16 bits
Compression mode                         : Lossy
Stream size                              : 338 MiB (17%)

Audio language                           : Spanish

IMDB link:                                 http://www.imdb.com/title/tt0245574/

Subtitles included                       : Czech, English, Hungarian, Romanian

Please seed at least 1,5:1 . This way this torrent has a chance to survive !

Thanks . Enjoy !! 		
Y Tu Mama Tambien [2001] 720p BRRip H264 AC3 - CODY/Cover.jpg 144.248 KB
Y Tu Mama Tambien [2001] 720p BRRip H264 AC3 - CODY/Info_by_Cody.txt 7.668 KB
Y Tu Mama Tambien [2001] 720p BRRip H264 AC3 - CODY/Torrent downloaded from Demonoid.me.txt 46 B
Gathering some info...

Register and log in Isohunt and see no captcha anymore!

4000 symbols left
Hash a5f866901368dd6282ef9f9912cf6446b93467e6

Related torrents for "Y Tu Mama Tambien [2001] 720p BRRip H264 AC3 - CODY"

Torrent search:

h264 2001 hd bd