imdb
rating

7.3
The Croods

The Croods (2013)

Adventure, Animation, Comedy, Fantasy, Family

Full description

The Croods 2013 TS XVID AC3 BHRG Verified

Size 665.049 MB   0 seeders     Added 2013-03-28 18:33:35

Stream torrent
Starting‥ You need BitLord! Get it from 1BitLord.com
To download or stream you need BitLord. Visit them at BitLord.com
Format                                   : AVI
Format/Info                              : Audio Video Interleave
File size                                : 628 MiB
Duration                                 : 1h 29mn
Overall bit rate                         : 981 Kbps
Writing library                          : VirtualDub build 30091/release

Video
ID                                       : 0
Format                                   : MPEG-4 Visual
Format profile                           : Advanced Simple@L5
Format settings, BVOP                    : 2
Format settings, QPel                    : No
Format settings, GMC                     : No warppoints
Format settings, Matrix                  : Default (H.263)
Muxing mode                              : Packed bitstream
Codec ID                                 : XVID
Codec ID/Hint                            : XviD
Duration                                 : 1h 29mn
Bit rate                                 : 843 Kbps
Width                                    : 640 pixels
Height                                   : 272 pixels
Display aspect ratio                     : 2.35:1
Frame rate                               : 25.000 fps
Color space                              : YUV
Chroma subsampling                       : 4:2:0
Bit depth                                : 8 bits
Scan type                                : Progressive
Compression mode                         : Lossy
Bits/(Pixel*Frame)                       : 0.194
Stream size                              : 540 MiB (86%)
Writing library                          : XviD 1.2.1 (UTC 2008-12-04)

Audio
ID                                       : 1
Format                                   : AC-3
Format/Info                              : Audio Coding 3
Mode extension                           : CM (complete main)
Format settings, Endianness              : Big
Codec ID                                 : 2000
Duration                                 : 1h 29mn
Bit rate mode                            : Constant
Bit rate                                 : 128 Kbps
Channel(s)                               : 2 channels
Channel positions                        : Front: L R
Sampling rate                            : 48.0 KHz
Bit depth                                : 16 bits
Compression mode                         : Lossy
Stream size                              : 82.0 MiB (13%)

Screens: 
image 
image 
image 
image		
The Croods 2013 TS XVID AC3 BHRG/www.RARBG.com.txt 45 B
The Croods 2013 TS XVID AC3 BHRG/The Croods 2013 TS XVID AC3 BHRG.avi 658.9 MB
The Croods 2013 TS XVID AC3 BHRG/The Croods 2013 TS XVID AC3 BHRG sample.avi 6.148 MB
Gathering some info...

Register and log in Isohunt and see no captcha anymore!

4000 symbols left
Hash 3fe7e49fd34ab883dc38cbf0a290627508a44553

Related torrents for "The Croods 2013 TS XVID AC3 BHRG"

Torrent search:

telesync 2013