imdb
rating

7.1
Away We Go

Away We Go (2009)

Comedy, Drama, Romance

Full description
quality   dvdr dvdrip x264 hd bd hdtv cam

[ www.Speed.Cd ] - Away.We.Go.2009.BRRip.XviD-DiN

Size 1.508 GB   0 seeders     Added 2013-03-29 01:02:35

Stream torrent
Starting‥ You need BitLord! Get it from BitLord.com
To download or stream you need BitLord. Visit them at BitLord.com
-
 
http://www.Speed. Cd       the fast  and The Hottest Private Tracker on the net 
http://www.Speed. Cd

Please Seed back to make the speed Faster!!
 ............ NFO .............
-
 
http://www.Speed. Cdhttp://www.imdb.com/title/tt1176740/

General

Complete name                            : Away.We.Go.2009.BRRip.XviD-DiN

Format                                   : AVI

Format/Info                              : Audio Video Interleave

File size                                : 1.40 GiB

Duration                                 : 1h 37mn

Overall bit rate                         : 2 057 Kbps



Video

ID                                       : 0

Format                                   : MPEG-4 Visual

Format profile                           : Advanced Simple@L5

Format settings, BVOP                    : 2

Format settings, QPel                    : No

Format settings, GMC                     : No warppoints

Format settings, Matrix                  : Default (H.263)

Codec ID                                 : XVID

Codec ID/Hint                            : XviD

Duration                                 : 1h 37mn

Bit rate                                 : 1 601 Kbps

Width                                    : 720 pixels

Height                                   : 304 pixels

Display aspect ratio                     : 2.35:1

Frame rate                               : 23.976 fps

Color space                              : YUV

Chroma subsampling                       : 4:2:0

Bit depth                                : 8 bits

Scan type                                : Progressive

Compression mode                         : Lossy

Bits/(Pixel*Frame)                       : 0.305

Stream size                              : 1.09 GiB (78%)

Writing library                          : XviD 1.2.1 (UTC 2008-12-04)



Audio

ID                                       : 1

Format                                   : AC-3

Format/Info                              : Audio Coding 3

Mode extension                           : CM (complete main)

Format settings, Endianness              : Big

Codec ID                                 : 2000

Duration                                 : 1h 37mn

Bit rate mode                            : Constant

Bit rate                                 : 448 Kbps

Channel(s)                               : 6 channels

Channel positions                        : Front: L C R, Side: L R, LFE

Sampling rate                            : 48.0 KHz

Bit depth                                : 16 bits

Compression mode                         : Lossy

Stream size                              : 313 MiB (22%)

Alignment                                : Aligned on interleaves

Interleave, duration                     : 64 ms (1.53 video frames)

Interleave, preload duration             : 192 ms		
[ www.Speed.Cd ] - Away.We.Go.2009.BRRip.XviD-DiN/awg-din.avi 1.508 GB
[ www.Speed.Cd ] - Away.We.Go.2009.BRRip.XviD-DiN/awg-din.nfo 2.649 KB
[ www.Speed.Cd ] - Away.We.Go.2009.BRRip.XviD-DiN/Subs/subs.rar 40.415 KB
Gathering some info...

Register and log in Isohunt and see no captcha anymore!

4000 symbols left
Hash 05e175266d6de4dd5c060bfefc3191b6f1bef776

Related torrents for "[ www.Speed.Cd ] - Away.We.Go.2009.BRRip.XviD-DiN"

Torrent search:

2009 bd