Himmatwala (2013) HD Scam - Team IcTv Exclusive Verified

Size 929.573 MB   0 seeders     Added 2013-03-29 16:02:35

Stream torrent
Starting‥ You need BitLord! Get it from 1BitLord.com
To download or stream you need BitLord. Visit them at BitLord.com
 image 
image 
image 
image 
image

Media Info - 
Video
ID : 224 (0xE0)
Format : MPEG Video
Format version : Version 2
Format profile : Main@Main
Format settings, BVOP : Yes
Format settings, Matrix : Default
Format settings, GOP : M=3, N=13
Duration : 2h 11mn
Bit rate mode : Variable
Bit rate : 798 Kbps
Maximum bit rate : 9 072 Kbps
Width : 352 pixels
Height : 288 pixels
Display aspect ratio : 4:3
Frame rate : 25.000 fps
Standard : PAL
Color space : YUV
Chroma subsampling : 4:2:0
Bit depth : 8 bits
Scan type : Progressive
Compression mode : Lossy
Bits/(Pixel*Frame) : 0.315
Stream size : 749 MiB (84%)

Audio
ID : 192 (0xC0)
Format : MPEG Audio
Format version : Version 1
Format profile : Layer 2
Duration : 2h 11mn
Bit rate mode : Constant
Bit rate : 128 Kbps
Channel(s) : 2 channels
Sampling rate : 48.0 KHz
Compression mode : Lossy
Stream size : 120 MiB (14%)

Sharer - MasterMind

Seeding 24x7... Extreme Seeding...


Enjoy!
		
Himmatwala (2013) HD Scam - Team IcTv Exclusive/VTS_01_0.VOB 59.392 KB
Himmatwala (2013) HD Scam - Team IcTv Exclusive/VTS_01_1.VOB 929.253 MB
Himmatwala (2013) HD Scam - Team IcTv Exclusive/VTS_01_0.IFO 88.064 KB
Gathering some info...

Register and log in Isohunt and see no captcha anymore!

4000 symbols left
Hash fc6ca88ec9e925ac80beaf4989d62d6ae7dad01b

Related torrents for "Himmatwala (2013) HD Scam - Team IcTv Exclusive"

Torrent search:

hd 2013