Freedom

Freedom (2000)

Action, Drama, Sci-Fi

Full description

Freedom Fighter - Konkani Saket.desibbrg.com.mp4

Size 257.665 MB   0 seeders     Added 2013-03-29 22:31:37

Stream torrent
Starting‥ You need BitLord! Get it from BitLord.com
To download or stream you need BitLord. Visit them at BitLord.com
 image 
image 
image 
image 
image

Media Info - 
Video
ID                             : 1
Format                         : AVC
Format/Info                    : Advanced Video Codec
Format profile                 : Main@L1.3
Format settings, CABAC         : Yes
Format settings, ReFrames      : 4 frames
Codec ID                       : avc1
Codec ID/Info                  : Advanced Video Coding
Duration                       : 1h 11mn
Bit rate mode                  : Variable
Bit rate                       : 320 Kbps
Width                          : 384 pixels
Height                         : 216 pixels
Display aspect ratio           : 16:9
Frame rate mode                : Constant
Frame rate                     : 25.000 fps
Color space                    : YUV
Chroma subsampling             : 4:2:0
Bit depth                      : 8 bits
Scan type                      : Progressive
Bits/(Pixel*Frame)             : 0.154
Stream size                    : 163 MiB (66%)
Writing library                : x264 core 120

Audio
ID                             : 2
Format                         : AAC
Format/Info                    : Advanced Audio Codec
Format profile                 : LC
Codec ID                       : 40
Duration                       : 1h 11mn
Bit rate mode                  : Variable
Bit rate                       : 160 Kbps
Maximum bit rate               : 348 Kbps
Channel(s)                     : 2 channels
Channel positions              : Front: L R
Sampling rate                  : 44.1 KHz
Compression mode               : Lossy
Delay relative to video        : 80ms
Stream size                    : 81.2 MiB (33%)

Ripper : SaketSaket

Seeding 24x7... Extreme Seeding...


Enjoy!
		
Freedom Fighter - Konkani Saket.desibbrg.com.mp4 257.665 MB
Gathering some info...

Register and log in Isohunt and see no captcha anymore!

4000 symbols left
Hash 0796b938d060885cba5db7e4a1a6129544299b27

Related torrents for "Freedom Fighter - Konkani Saket.desibbrg.com.mp4"