imdb
rating

6.2
The Girl

The Girl (2012)

Drama

Full description
quality   screener dvdrip bd

The.Girl.2012.UNRATED.WEBRip XViD juggs

Size 741.818 MB   0 seeders     Added 2013-03-30 02:01:38

Stream torrent
Starting‥ You need BitLord! Get it from BitLord.com
To download or stream you need BitLord. Visit them at BitLord.com
Source : NGB (Thanks)
  
http://www.imdb.com/title/tt2132485/


Format                                   : AVI
Format/Info                              : Audio Video Interleave
File size                                : 700 MiB
Duration                                 : 1h 27mn
Overall bit rate                         : 1 122 Kbps
Writing library                          : VirtualDub build 32842/release

Video
ID                                       : 0
Format                                   : MPEG-4 Visual
Format profile                           : Advanced Simple@L5
Format settings, BVOP                    : 4
Format settings, QPel                    : No
Format settings, GMC                     : No warppoints
Format settings, Matrix                  : Default (H.263)
Muxing mode                              : Packed bitstream
Codec ID                                 : XVID
Codec ID/Hint                            : XviD
Duration                                 : 1h 27mn
Bit rate                                 : 984 Kbps
Width                                    : 640 pixels
Height                                   : 352 pixels
Display aspect ratio                     : 16:9
Frame rate                               : 25.000 fps
Color space                              : YUV
Chroma subsampling                       : 4:2:0
Bit depth                                : 8 bits
Scan type                                : Progressive
Compression mode                         : Lossy
Bits/(Pixel*Frame)                       : 0.175
Stream size                              : 614 MiB (88%)
Writing library                          : XviD 64

Audio
ID                                       : 1
Format                                   : MPEG Audio
Format version                           : Version 1
Format profile                           : Layer 3
Codec ID                                 : 55
Codec ID/Hint                            : MP3
Duration                                 : 1h 27mn
Bit rate mode                            : Constant
Bit rate                                 : 128 Kbps
Channel(s)                               : 2 channels
Sampling rate                            : 44.1 KHz
Compression mode                         : Lossy
Stream size                              : 79.8 MiB (11%)
Alignment                                : Split accross interleaves
Interleave, duration                     : 40 ms (1.00 video frame)
Interleave, preload duration             : 500 ms
Writing library                          : LAME3.99r
Encoding settings                        : -m s -V 4 -q 3 -lowpass 17 -b 128

Plot
The turbulent relationship between filmmaker Alfred Hitchcock and actress Tippi Hedren.
  
image  
image  
image			
The.Girl.2012.UNRATED.WEBRip XViD juggs/www.RARBG.com.txt 45 B
The.Girl.2012.UNRATED.WEBRip XViD juggs/sample.avi 8.186 MB
The.Girl.2012.UNRATED.WEBRip XViD juggs/The.Girl.2012.UNRATED.WEBRip XViD juggs.avi 733.632 MB
Gathering some info...

Register and log in Isohunt and see no captcha anymore!

4000 symbols left
Hash 19fe75b9492da13e36f73ca6e3146f2f862031ba

Related torrents for "The.Girl.2012.UNRATED.WEBRip XViD juggs"

Torrent search:

2012 web-rip