imdb
rating

6.0
Escape from Planet Earth

Escape from Planet Earth (2013)

Adventure, Animation, Comedy, Science Fiction, Family

Full description

Escape From Planet earth.2013.R5.Rip.XviD.CAM.AUDIO-FANTA

Size 1.244 GB   1 seeders     Added 2013-03-30 02:02:38

Stream torrent
Starting‥ You need BitLord! Get it from BitLord.com
To download or stream you need BitLord. Visit them at BitLord.com
General
Format : AVI
Format/Info : Audio Video Interleave
Format profile : OpenDML
Format settings : rec
File size : 1.16 GiB
Duration : 1h 25mn
Overall bit rate : 1 932 Kbps
Writing application : AVI-Mux GUI 1.17.8.3, Feb 16 201019:42:50

Video
ID : 0
Format : MPEG-4 Visual
Format profile : Advanced Simple@L5
Format settings, BVOP : 1
Format settings, QPel : No
Format settings, GMC : No warppoints
Format settings, Matrix : Custom
Codec ID : XVID
Codec ID/Hint : XviD
Duration : 1h 25mn
Bit rate : 1 734 Kbps
Width : 720 pixels
Height : 304 pixels
Display aspect ratio : 2.35:1
Frame rate : 24.940 fps
Original frame rate : 25.000 fps
Color space : YUV
Chroma subsampling : 4:2:0
Bit depth : 8 bits
Scan type : Progressive
Compression mode : Lossy
Bits/(Pixel*Frame) : 0.318
Stream size : 1.04 GiB (90%)
Writing library : XviD 1.2.1 (UTC 2008-12-04)

Audio
ID : 1
Format : AC-3
Format/Info : Audio Coding 3
Mode extension : CM (complete main)
Format settings, Endianness : Big
Codec ID : 2000
Duration : 1h 25mn
Bit rate mode : Constant
Bit rate : 192 Kbps
Channel(s) : 2 channels
Channel positions : Front: L R
Sampling rate : 48.0 KHz
Bit depth : 16 bits
Compression mode : Lossy
Stream size : 118 MiB (10%)
Alignment : Aligned on interleaves
Interleave, duration : 64 ms (1.60 video frames)
Interleave, preload duration : 192 ms
Title : Audio-English
		
Escape From Planet earth.2013.R5.Rip.XviD.CAM.AUDIO-FANTA/www.RARBG.com.txt 45 B
Escape From Planet earth.2013.R5.Rip.XviD.CAM.AUDIO-FANTA/Escape From Planet earth.2013.R5.Rip.XviD.CAM.AUDIO-FANTA.avi 1.244 GB
Gathering some info...

Register and log in Isohunt and see no captcha anymore!

4000 symbols left
Hash e99c8bd8216c5a4f829b4559e7d9b58019b9f424

Related torrents for "Escape From Planet earth.2013.R5.Rip.XviD.CAM.AUDIO-FANTA"

Torrent search:

cam dvd 2013