imdb
rating

5.9
Hyde Park on Hudson

Hyde Park on Hudson (2012)

Comedy, Drama, History

Full description
quality   dvdrip x264 hd bd

Hyde.park.on.hudson.2012.BRRip XViD juggs

Size 738.989 MB   0 seeders     Added 2013-03-30 02:03:39

Stream torrent
Starting‥ You need BitLord! Get it from 1BitLord.com
To download or stream you need BitLord. Visit them at BitLord.com
Source : GECKOS(Thanks)
 
http://www.imdb.com/title/tt1477855/

Format                                   : AVI
Format/Info                              : Audio Video Interleave
File size                                : 700 MiB
Duration                                 : 1h 34mn
Overall bit rate                         : 1 037 Kbps
Writing library                          : VirtualDub build 32842/release

Video
ID                                       : 0
Format                                   : MPEG-4 Visual
Format profile                           : Advanced Simple@L5
Format settings, BVOP                    : 4
Format settings, QPel                    : No
Format settings, GMC                     : No warppoints
Format settings, Matrix                  : Default (H.263)
Muxing mode                              : Packed bitstream
Codec ID                                 : XVID
Codec ID/Hint                            : XviD
Duration                                 : 1h 34mn
Bit rate                                 : 900 Kbps
Width                                    : 640 pixels
Height                                   : 272 pixels
Display aspect ratio                     : 2.35:1
Frame rate                               : 23.976 fps
Color space                              : YUV
Chroma subsampling                       : 4:2:0
Bit depth                                : 8 bits
Scan type                                : Progressive
Compression mode                         : Lossy
Bits/(Pixel*Frame)                       : 0.216
Stream size                              : 607 MiB (87%)
Writing library                          : XviD 64

Audio
ID                                       : 1
Format                                   : MPEG Audio
Format version                           : Version 1
Format profile                           : Layer 3
Mode                                     : Joint stereo
Mode extension                           : MS Stereo
Codec ID                                 : 55
Codec ID/Hint                            : MP3
Duration                                 : 1h 34mn
Bit rate mode                            : Constant
Bit rate                                 : 128 Kbps
Channel(s)                               : 2 channels
Sampling rate                            : 44.1 KHz
Compression mode                         : Lossy
Stream size                              : 86.4 MiB (12%)
Alignment                                : Split accross interleaves
Interleave, duration                     : 42 ms (1.00 video frame)
Interleave, preload duration             : 500 ms
Writing library                          : LAME3.98
		
Hyde.park.on.hudson.2012.BRRip XViD juggs/www.RARBG.com.txt 45 B
Hyde.park.on.hudson.2012.BRRip XViD juggs/SAMPLE.avi 5.061 MB
Hyde.park.on.hudson.2012.BRRip XViD juggs/Hyde.park.on.hudson.2012.BRRip XViD juggs.avi 733.928 MB
Gathering some info...

Register and log in Isohunt and see no captcha anymore!

4000 symbols left
Hash 94eebbe0d55412b6ec35151e1983dae06351bcab

Related torrents for "Hyde.park.on.hudson.2012.BRRip XViD juggs"

Torrent search:

2012 bd