imdb
rating

5.6
Kiss of the Damned

Kiss of the Damned (2012)

Drama, Horror, Romance

Full description

Kiss.of.the.Damned.2012.WEBRip XViD juggs Verified

Size 740.223 MB   10 seeders     Added 2013-03-30 08:02:39

Stream torrent
Starting‥ You need BitLord! Get it from BitLord.com
To download or stream you need BitLord. Visit them at BitLord.com
Source :ctrlHD(Thanks)
 
http://www.imdb.com/title/tt1959438/

Format                                   : AVI
Format/Info                              : Audio Video Interleave
File size                                : 700 MiB
Duration                                 : 1h 35mn
Overall bit rate                         : 1 025 Kbps
Writing library                          : VirtualDub build 32842/release

Video
ID                                       : 0
Format                                   : MPEG-4 Visual
Format profile                           : Advanced Simple@L5
Format settings, BVOP                    : 4
Format settings, QPel                    : No
Format settings, GMC                     : No warppoints
Format settings, Matrix                  : Default (H.263)
Muxing mode                              : Packed bitstream
Codec ID                                 : XVID
Codec ID/Hint                            : XviD
Duration                                 : 1h 35mn
Bit rate                                 : 888 Kbps
Width                                    : 640 pixels
Height                                   : 272 pixels
Display aspect ratio                     : 2.35:1
Frame rate                               : 23.976 fps
Color space                              : YUV
Chroma subsampling                       : 4:2:0
Bit depth                                : 8 bits
Scan type                                : Progressive
Compression mode                         : Lossy
Bits/(Pixel*Frame)                       : 0.213
Stream size                              : 606 MiB (87%)
Writing library                          : XviD 64

Audio
ID                                       : 1
Format                                   : MPEG Audio
Format version                           : Version 1
Format profile                           : Layer 3
Codec ID                                 : 55
Codec ID/Hint                            : MP3
Duration                                 : 1h 35mn
Bit rate mode                            : Constant
Bit rate                                 : 128 Kbps
Channel(s)                               : 2 channels
Sampling rate                            : 44.1 KHz
Compression mode                         : Lossy
Stream size                              : 87.4 MiB (12%)
Alignment                                : Split accross interleaves
Interleave, duration                     : 42 ms (1.00 video frame)
Interleave, preload duration             : 500 ms
Writing library                          : LAME3.99r
Encoding settings                        : -m s -V 4 -q 3 -lowpass 17 -b 128


Plot
The vampire Djuna resists the advances of Paolo, but soon gives in to their passion. When her trouble-making sister unexpectedly comes to visit, Djuna's love is threatened, and the whole vampire community becomes endangered.
 
image 
image 
image		
Kiss.of.the.Damned.2012.WEBRip XViD juggs/Kiss.of.the.Damned.2012.WEBRip XViD juggs.avi 733.954 MB
Kiss.of.the.Damned.2012.WEBRip XViD juggs/Torrent Downloaded From ExtraTorrent.com.txt 339 B
Kiss.of.the.Damned.2012.WEBRip XViD juggs/sample.avi 6.269 MB
Gathering some info...

Register and log in Isohunt and see no captcha anymore!

4000 symbols left
Hash 22948c2757e87994ef9ea965c64217b64cad0618

Related torrents for "Kiss.of.the.Damned.2012.WEBRip XViD juggs"

Torrent search:

2012 web-rip