imdb
rating

6.8
The A-Team

The A-Team (2010)

Action, Adventure, Comedy, Crime, Thriller

Full description
quality   x264 h264 dvdrip telesync cam

HIMMATWALA super rip team ictv.mpg

Size 839.67 MB   0 seeders     Added 2013-03-30 10:01:37

Stream torrent
Starting‥ You need BitLord! Get it from 1BitLord.com
To download or stream you need BitLord. Visit them at BitLord.com
Himmatwala 2013 Final Cam [Team ICTV] Phantom
 
http://www.imdb.com/title/tt2344678/

Poster: 
image

Screens: 
image
 
image
 
image
 
image
 
image
 
image
 
image
 
image
 
image
 
image

Media Info:
Format : MPEG-PS
File size : 801 MiB
Duration : 2h 13mn
Overall bit rate : 836 Kbps

Video
ID : 224 (0xE0)
Format : MPEG Video
Format version : Version 2
Format settings, BVOP : Yes
Format settings, Matrix : Custom
Duration : 2h 13mn
Bit rate : 756 Kbps
Maximum bit rate : 1 150 Kbps
Width : 352 pixels
Height : 288 pixels
Display aspect ratio : 1.222
Frame rate : 25.000 fps
Standard : PAL
Color space : YUV
Bit depth : 8 bits
Scan type : Progressive
Compression mode : Lossy
Bits/(Pixel*Frame) : 0.298
Stream size : 724 MiB (90%)

Audio
ID : 192 (0xC0)
Format : MPEG Audio
Format version : Version 1
Format profile : Layer 2
Duration : 2h 13mn
Bit rate mode : Constant
Bit rate : 64.0 Kbps
Channel(s) : 2 channels
Sampling rate : 48.0 KHz
Compression mode : Lossy
Stream size : 61.3 MiB (8%)

All Credits to TJ DA KING for the rip-n-share.

Extreme Seeding...
		
HIMMATWALA super rip team ictv.mpg 839.67 MB
Gathering some info...

Register and log in Isohunt and see no captcha anymore!

4000 symbols left
Hash e645be374d2f6b6dcc623a7ef82ce08cb89fb53e

Related torrents for "HIMMATWALA super rip team ictv.mpg"