Striker - DVDRip - XviD - 1CDRip - [DDR].avi

Size 733.686 MB   0 seeders     Added 2013-03-30 14:34:36

Stream torrent
Starting‚Ä• You need BitLord! Get it from BitLord.com
To download or stream you need BitLord. Visit them at BitLord.com
Striker - DVDRip - XviD - 1CDRip - [DDR]
 
http://www.imdb.com/title/tt1573482/

 
image




Set in a Mumbai ghetto in the mid '80's and based on true life accounts, Striker is a story of triumph of human spirit over indomitable odds.

Born into a poor family, Surya grows up with few luxuries. Poor health keeps him away from school often and that is when his elder brother, Chandrakant, introduces him to carrom. Winning the Junior Carrom Championship at 12 is not enough to keep Surya's fire for the sport burning through adolescence. Hopes for a job in Dubai replace the passion for carrom as Surya grows into a young man. Duped by a bogus overseas employment agency, Surya loses all his hard earned money he had saved for going to Dubai. Surya is forced to cross paths with Jaleel.

Since the 70's when the settlements in the ghetto began, Jaleel had acquired a strong hold in the area. He had his hands in every illicit activity since then. Feeding on the weaknesses of people, Jaleel was the self-proclaimed king of Malwani. Reintroduced to carrom by his childhood friend Zaid, this time to the carrom hustling scene, Surya starts playing again. Being gypped of his hard earned money by the same man who had caused misery for many families; Surya decides to take on Jaleel on his turf. His patience and cool attitude are Surya's biggest strengths. But life has its own ways of testing it.




General
Complete name                            : F:Hindi MoviezStriker - DVDRip - XviD - 1CDRip - [DDR]Striker - DVDRip - XviD - 1CDRip - [DDR].avi
Format                                   : AVI
Format/Info                              : Audio Video Interleave
File size                                : 700 MiB
Duration                                 : 2h 7mn
Overall bit rate                         : 769 Kbps
Writing application                      : VirtualDubMod 1.5.10.2 (build 2540/release)
Writing library                          : VirtualDubMod build 2540/release

Video
ID                                       : 0
Format                                   : MPEG-4 Visual
Format profile                           : Advanced Simple@L5
Format settings, BVOP                    : 1
Format settings, QPel                    : No
Format settings, GMC                     : No warppoints
Format settings, Matrix                  : Custom
Codec ID                                 : XVID
Codec ID/Hint                            : XviD
Duration                                 : 2h 7mn
Bit rate                                 : 632 Kbps
Width                                    : 688 pixels
Height                                   : 288 pixels
Display aspect ratio                     : 2.40:1
Frame rate                               : 23.976 fps
Color space                              : YUV
Chroma subsampling                       : 4:2:0
Bit depth                                : 8 bits
Scan type                                : Progressive
Compression mode                         : Lossy
Bits/(Pixel*Frame)                       : 0.133
Stream size                              : 575 MiB (82%)
Writing library                          : XviD 1.2.1 (UTC 2008-12-04)

Audio
ID                                       : 1
Format                                   : AC-3
Format/Info                              : Audio Coding 3
Mode extension                           : CM (complete main)
Format settings, Endianness              : Big
Codec ID                                 : 2000
Duration                                 : 2h 7mn
Bit rate mode                            : Constant
Bit rate                                 : 128 Kbps
Channel(s)                               : 6 channels
Channel positions                        : Front: L C R, Side: L R, LFE
Sampling rate                            : 48.0 KHz
Bit depth                                : 16 bits
Compression mode                         : Lossy
Stream size                              : 116 MiB (17%)
Alignment                                : Split accross interleaves
Interleave, duration                     : 42 ms (1.00 video frame)
Interleave, preload duration             : 500 ms
Title                                    : DDR KaMaL

		
Striker - DVDRip - XviD - 1CDRip - [DDR].avi 733.686 MB
Gathering some info...

Register and log in Isohunt and see no captcha anymore!

4000 symbols left
Hash c7658b18be656fa8b6430cad5ea36dfe7f63239e