imdb
rating

4.9
Vehicle 19

Vehicle 19 (2013)

Thriller

Full description
quality   x264 web-rip bd dvdrip fullhd

Vehicle 19 2013 WEBRiP CROPPED XviD Feel-Free

Size 661.233 MB   0 seeders     Added 2013-03-30 18:32:32

Stream torrent
Starting‥ You need BitLord! Get it from BitLord.com
To download or stream you need BitLord. Visit them at BitLord.com
Format                                   : AVI
Format/Info                              : Audio Video Interleave
File size                                : 630 MiB
Duration                                 : 1h 25mn
Overall bit rate                         : 1 034 Kbps
Writing application                      : VirtualDubMod 1.5.10.2 (build 2540/release)
Writing library                          : VirtualDubMod build 2540/release

Video
ID                                       : 0
Format                                   : MPEG-4 Visual
Format profile                           : Advanced Simple@L5
Format settings, BVOP                    : 1
Format settings, QPel                    : No
Format settings, GMC                     : No warppoints
Format settings, Matrix                  : Default (H.263)
Codec ID                                 : XVID
Codec ID/Hint                            : XviD
Duration                                 : 1h 25mn
Bit rate                                 : 865 Kbps
Width                                    : 640 pixels
Height                                   : 224 pixels
Display aspect ratio                     : 2.857
Frame rate                               : 23.976 fps
Color space                              : YUV
Chroma subsampling                       : 4:2:0
Bit depth                                : 8 bits
Scan type                                : Progressive
Compression mode                         : Lossy
Bits/(Pixel*Frame)                       : 0.252
Stream size                              : 527 MiB (84%)
Writing library                          : XviD 1.2.1 (UTC 2008-12-04)

Audio
ID                                       : 1
Format                                   : AC-3
Format/Info                              : Audio Coding 3
Mode extension                           : CM (complete main)
Codec ID                                 : 2000
Duration                                 : 1h 25mn
Bit rate mode                            : Constant
Bit rate                                 : 160 Kbps
Channel(s)                               : 2 channels
Channel positions                        : Front: L R
Sampling rate                            : 48.0 KHz
Bit depth                                : 16 bits
Compression mode                         : Lossy
Stream size                              : 97.5 MiB (15%)
Alignment                                : Aligned on interleaves
Interleave, duration                     : 42 ms (1.00 video frame)
Interleave, preload duration             : 512 ms

Screens: 
image 
image 
image		
Vehicle 19 2013 WEBRiP CROPPED XviD Feel-Free/www.RARBG.com.txt 45 B
Vehicle 19 2013 WEBRiP CROPPED XviD Feel-Free/vlcsnap-2013-03-30-12h09m41s215.png 285.308 KB
Vehicle 19 2013 WEBRiP CROPPED XviD Feel-Free/vlcsnap-2013-03-30-12h08m13s105.png 208.201 KB
Gathering some info...

Register and log in Isohunt and see no captcha anymore!

4000 symbols left
Hash 80e9a2fa3b757b39c84ad19547e98a131c9cb1b3

Related torrents for "Vehicle 19 2013 WEBRiP CROPPED XviD Feel-Free"

Torrent search:

web-rip 2013