De l\'autre côté du périph\' 2013 FRENCH DVDRip XviD-INSPiRAL Verified

Size 734.345 MB   0 seeders     Added 2013-03-30 19:50:50

Stream torrent
Starting‥ You need BitLord! Get it from BitLord.com
To download or stream you need BitLord. Visit them at BitLord.com
De l\'autre côté du périph\' 2013 FRENCH DVDRip XviD-INSPiRAL\r\n\r\n\r\n[img]image[/img]\r\n\r\n\r\n   \r\nVideo\r\nID                               : 0\r\nFormat                           : MPEG-4 Visual\r\nFormat profile                   : Advanced Simple@L5\r\nFormat settings, BVOP            : 2    \r\nFormat settings, QPel            : No     \r\nFormat settings, GMC             : No warppoints\r\nFormat settings, Matrix          : Default (H.263)     \r\nMuxing mode                      : Packed bitstream    \r\nCodec ID                         : XVID\r\nCodec ID/Hint                    : XviD               \r\nDuration                         : 1h 36mn   \r\nBit rate                         : 802 Kbps    \r\nWidth                            : 720 pixels\r\nHeight                           : 310 pixels   \r\nDisplay aspect ratio             : 2.500\r\nFrame rate                       : 23.976 fps\r\nColor space                      : YUV\r\nChroma subsampling               : 4:2:0\r\nBit depth                        : 8 bits\r\nScan type                        : Progressive\r\nCompression mode                 : Lossy\r\nBits/(Pixel*Frame)               : 0.420\r\nStream size                      : 657 MiB (94%)\r\nWriting library                  : XviD 64\r\n                               \r\nAudio\r\nID                               : 1\r\nFormat                           : MPEG Audio\r\nFormat version                   : Version 1\r\nFormat profile                   : Layer 3\r\nMode                             : Joint stereo\r\nMode extension                   : MS Stereo\r\nCodec ID                         : 55\r\nCodec ID/Hint                    : MP3\r\nDuration                         : 1h 36mn\r\nBit rate mode                    : Constant\r\nBit rate                         : 128 Kbps\r\nChannel(s)                       : 2 channels\r\nSampling rate                    : 44.1 KHz\r\nCompression mode                 : Lossy\r\nStream size                      : 42.7 MiB (6%)\r\nAlignment                        : Split accross interleaves\r\nInterleave, duration             : 42 ms (1.00 video frame)\r\n\r\nNotes -\r\nNothing you need to know other than its very nice ;)\r\n                               \r\n                                              \r\n[IMG]image[/IMG]\r\n[IMG]image[/IMG]\r\n[IMG]image[/IMG]\r\n[IMG]image[/IMG]                    
De l'autre côté du périph' 2013 FRENCH DVDRip XviD-INSPiRAL/cover.jpg 261.786 KB
De l'autre côté du périph' 2013 FRENCH DVDRip XviD-INSPiRAL/De l'autre côté du périph' 2013 FRENCH DVDRip XviD-INSPiRAL.nfo 2.419 KB
De l'autre côté du périph' 2013 FRENCH DVDRip XviD-INSPiRAL/De l'autre côté du périph' 2013 FRENCH.DVDRip XviD-INSPiRAL.rar 733.684 MB
Gathering some info...

Register and log in Isohunt and see no captcha anymore!

4000 symbols left
Hash b494563337b7577870b930863f1f0afb587ebca5

Related torrents for "De l\'autre côté du périph\' 2013 FRENCH DVDRip XviD-INSPiRAL"

Torrent search:

dvdrip french 2013