imdb
rating

6.1
The Fourth State

The Fourth State (2012)

Thriller

Full description
quality   dvdrip x264 fullhd bd hd dvdr

The Fourth State 2012 BRRiP x264 AC3-OFFLiNE

Size 2.146 GB   0 seeders     Added 2013-03-30 23:31:35

Stream torrent
Starting‥ You need BitLord! Get it from BitLord.com
To download or stream you need BitLord. Visit them at BitLord.com
The Fourth State 2012 BRRiP x264 AC3-OFFLiNE

iMDB  http://www.imdb.com/title/tt1709122

Source  1080p CHD  -  MANY THANKX

Media Info
The Fourth State 2012 BRRiP x264 AC3-OFFLiNE.mp4
Format                                   : MPEG-4
Format profile                           : Base Media
Codec ID                                 : isom
File size                                : 2.00 GiB
Duration                                 : 1h 57mn
Overall bit rate mode                    : Variable
Overall bit rate                         : 2 442 Kbps
Encoded date                             : UTC 2013-03-30 04:44:47
Tagged date                              : UTC 2013-03-30 04:44:47

Video
ID                                       : 1
Format                                   : AVC
Format/Info                              : Advanced Video Codec
Format profile                           : High@L4.1
Format settings, CABAC                   : Yes
Format settings, ReFrames                : 3 frames
Codec ID                                 : avc1
Codec ID/Info                            : Advanced Video Coding
Duration                                 : 1h 57mn
Bit rate mode                            : Variable
Bit rate                                 : 2 058 Kbps
Maximum bit rate                         : 40.0 Mbps
Width                                    : 720 pixels
Height                                   : 304 pixels
Display aspect ratio                     : 2.35:1
Frame rate mode                          : Constant
Frame rate                               : 24.000 fps
Color space                              : YUV
Chroma subsampling                       : 4:2:0
Bit depth                                : 8 bits
Scan type                                : Progressive
Bits/(Pixel*Frame)                       : 0.392
Stream size                              : 1.68 GiB (84%)
Title                                    : The Fourth State 2012 BRRiP x264 AC3-OFFLiNE
Writing library                          : x264 core 130 r2273 b3065e6

Audio
ID                                       : 2
Format                                   : AC-3
Format/Info                              : Audio Coding 3
Mode extension                           : CM (complete main)
Format settings, Endianness              : Big
Codec ID                                 : ac-3
Duration                                 : 1h 57mn
Bit rate mode                            : Constant
Bit rate                                 : 384 Kbps
Channel(s)                               : 6 channels
Channel positions                        : Front: L C R, Side: L R, LFE
Sampling rate                            : 48.0 KHz
Bit depth                                : 16 bits
Compression mode                         : Lossy
Stream size                              : 322 MiB (16%)
Title                                    : 5.1
Language                                 : English

Screens: 
image 
image 
image 
image		
The Fourth State 2012 BRRiP x264 AC3-OFFLiNE/www.RARBG.com.txt 45 B
The Fourth State 2012 BRRiP x264 AC3-OFFLiNE/The Fourth State 2012 BRRiP x264 AC3-OFFLiNE.nfo 7.153 KB
The Fourth State 2012 BRRiP x264 AC3-OFFLiNE/The Fourth State 2012 BRRiP x264 AC3-OFFLiNE.mp4 2.146 GB
Gathering some info...

Register and log in Isohunt and see no captcha anymore!

4000 symbols left
Hash c76e12e7fef640782c41d9b3c042ca520abc6b39

Related torrents for "The Fourth State 2012 BRRiP x264 AC3-OFFLiNE"

Torrent search:

x264 2012 bd