Step Up Col

Size 7.582 GB   2 seeders     Added 2013-03-31 05:18:36

Stream torrent
Starting‥ You need BitLord! Get it from 1BitLord.com
To download or stream you need BitLord. Visit them at BitLord.com
With: Channing Tatum, Mario and Jenna Dewan ea

Alle 4 films van 2006 tot 2012,
Tyler Gage is een jonge roekeloze straatcrimineel, die in een vicieuze cirkel van moeilijkheden terechtkomt, nadat hij en zijn vrienden een auditorium van een hogeschool voor beeldende kunsten aan diggelen geslagen hebben. Door de rechter wordt hij veroordeeld tot een taakstraf in de getroffen school. Hij wil eerst niets te maken hebben met de leerlingen. Tot hij een knappe danseres ontmoet die bereid is hem een kans te geven. Tegen alle verwachtingen in belandt Tyler in haar leefwereld en ontdekt dat hijzelf ook talenten heeft om te dansen.

All 4 movies, Music and Dance

Storyline
Emily arrives in Miami with aspirations to become a professional dancer. She sparks with Sean, the leader of a dance crew whose neighborhood is threatened by Emily's father's development plans. 
 
http://www.imdb.com/title/tt0462590	

------------------------ Dutch Friends ------------------------
---------------------------------------------------------------
- Bezoek ook eens mijn vrienden op:  http://www.Film-Test.nl --
----- voor mijn Nederlandse Sync. ondertitels ---- en meer ----
------- http://www.Film-Test.nl ---- Over Films en meer -------
---------------------------------------------------------------

General:

Complete name                    : Step Up ColStep Up.avi
Format                           : AVI
Format/Info                      : Audio Video Interleave
File size                        : 1.66 GiB
Duration                         : 1h 43mn
Overall bit rate                 : 2 294 Kbps

Video:

Format                           : MPEG-4 Visual
Format profile                   : Simple@L3
Format settings, BVOP            : No
Format settings, QPel            : No
Format settings, GMC             : No warppoints
Format settings, Matrix          : Default (H.263)
Codec ID                         : XVID
Codec ID/Hint                    : XviD
Duration                         : 1h 43mn
Bit rate                         : 1 900 Kbps
Width                            : 720 pixels
Height                           : 304 pixels
Display aspect ratio             : 2.35:1
Frame rate                       : 23.976 fps
Color space                      : YUV
Chroma subsampling               : 4:2:0
Bit depth                        : 8 bits
Scan type                        : Progressive
Compression mode                 : Lossy
Bits/(Pixel*Frame)               : 0.362
Stream size                      : 1.37 GiB (83%)
Writing library                  : XviD 1.1.2 (UTC 2006-11-01)

Audio:

Format                           : AC-3
Format/Info                      : Audio Coding 3
Mode extension                   : CM (complete main)
Codec ID                         : 2000
Duration                         : 1h 43mn
Bit rate mode                    : Constant
Bit rate                         : 384 Kbps
Channel(s)                       : 6 channels
Channel positions                : Front: L C R, Side: L R, LFE
Sampling rate                    : 48.0 KHz
Bit depth                        : 16 bits
Compression mode                 : Lossy
Stream size                      : 284 MiB (17%)
Alignment                        : Aligned on interleaves
Interleave, duration             : 32 ms (0.77 video frame)
Interleave, preload duration     : 288 ms		
Step Up Col/Covers/Step Up.png 421.624 KB
Step Up Col/Covers/www.Film-Test.nl.JPG 29.467 KB
Step Up Col/Step Up 4.avi 1.995 GB
Gathering some info...

Register and log in Isohunt and see no captcha anymore!

4000 symbols left
Hash dc9a80bb947c0166f8efa40743aaf424a8ead225