imdb
rating

6.4
Power Rangers

Power Rangers (1993)

Action & Adventure, Kids, Sci-Fi & Fantasy

Full description

Power Rangers Megaforce Season 1 EP8 Robo Knight.mp4

Size 262.646 MB   0 seeders     Added 2013-03-31 17:01:27

Stream torrent
Starting‥ You need BitLord! Get it from BitLord.com
To download or stream you need BitLord. Visit them at BitLord.com
Format                                   : MPEG-4
Format profile                           : Base Media
Codec ID                                 : isom
File size                                : 250 MiB
Duration                                 : 23mn 35s
Overall bit rate                         : 1 485 Kbps
Writing application                      : Lavf54.29.104

Video
ID                                       : 1
Format                                   : AVC
Format/Info                              : Advanced Video Codec
Format profile                           : High@L3.1
Format settings, CABAC                   : Yes
Format settings, ReFrames                : 5 frames
Codec ID                                 : avc1
Codec ID/Info                            : Advanced Video Coding
Duration                                 : 23mn 35s
Bit rate                                 : 1 348 Kbps
Width                                    : 1 280 pixels
Height                                   : 720 pixels
Display aspect ratio                     : 16:9
Frame rate mode                          : Variable
Frame rate                               : 23.976 fps
Color space                              : YUV
Chroma subsampling                       : 4:2:0
Bit depth                                : 8 bits
Scan type                                : Progressive
Bits/(Pixel*Frame)                       : 0.061
Stream size                              : 227 MiB (91%)

Audio
ID                                       : 2
Format                                   : AAC
Format/Info                              : Advanced Audio Codec
Format profile                           : LC
Codec ID                                 : 40
Duration                                 : 23mn 35s
Bit rate mode                            : Constant
Bit rate                                 : 128 Kbps
Channel(s)                               : 2 channels
Channel positions                        : Front: L R
Sampling rate                            : 48.0 KHz
Compression mode                         : Lossy
Stream size                              : 21.6 MiB (9%)




The mysterious Robo Knight joins the Power Rangers. Can he help them defeat toxic 

monsters that threaten the earth?

		
Power Rangers Megaforce Season 1 EP8 Robo Knight.mp4 262.646 MB
Gathering some info...

Register and log in Isohunt and see no captcha anymore!

4000 symbols left
Hash 4cf2339544e51b71b3655966697e61b7463d2120

Related torrents for "Power Rangers Megaforce Season 1 EP8 Robo Knight.mp4"

Torrent search:

season 01 episode 08