G.I Joe 2013 PROPER TS Xvid UnKnOwN

Size 1.309 GB   8 seeders     Added 2013-03-31 21:33:36

Stream torrent
Starting‥ You need BitLord! Get it from 1BitLord.com
To download or stream you need BitLord. Visit them at BitLord.com
і Encoded By .......:UnKnOwN                                                   і
і Runtime ..........:1:40                                                      і
і IMDb URL .........:http://www.imdb.com/title/tt1583421/                      і
і Language .........:English                                                   і
і File Size ........:1.07gb                                                    і
і Release Date ......... 2013                                                  і
і Source       ......... Russian/Always UnKnOwN                                і
і File Type    ......... Single AVI                                            і
і PS3 Compatible ....... You still whining about your Ps3                      і
і Genre        ......... Action                                                і
і                                                                              і
і                                                                              і
і Video                                                                        і
і  ID                               : 0                                        і
і  Format                           : MPEG-4 Visual                            і
і  Format profile                   : Advanced Simple@L5                       і
і  Format settings, BVOP            : Yes                                      і
і  Format settings, QPel            : No                                       і
і  Format settings, GMC             : No warppoints                            і
і  Format settings, Matrix          : Custom                                   і
і  Codec ID                         : XVID                                     і
і  Codec ID/Hint                    : XviD                                     і
і  Duration                         : 1h 40mn                                  і
і  Bit rate                         : 1680kbps                                 і
і  Width                            : 700pixels                                і
і  Height                           : 282pixels                                і
і  Display aspect ratio             : 2:45                                     і
і  Frame rate                       : 29.000fps                                і
і  Color space                      : YUV                                      і
і  Chroma subsampling               : 4:2:0                                    і
і  Bit depth                        : 8 bits                                   і
і  Scan type                        : Progressive                              і
і  Bits/(Pixel*Frame)               : 0.234                                    і
і  Stream size                      : 892 MiB (86%)                            і
і  Writing library                  : XviD 1.2.1 (UTC 2008-12-04)              і
і                                                                              і
і                                                                              і
і Audio                                                                        і
і ID                               : 1                                         і
і Format                           : AC3                                       і
і Format/Info                      : MPEG                                      і
і Mode extension                   : CM (complete main)                        і
і Codec ID                         : 2000                                      і
і Duration                         : 1h 40mn                                   і
і Bit rate mode                    : Constant                                  і
і Bit rate                         : 192kbps                                   і
і Channel(s)                       : 2channels                                 і
і Channel positions                : Front: L C R, Side: L R, LFE              і
і Sampling rate                    : 48.0 KHz                                  і
і Bit depth                        : 16 bits                                   і
і Stream size                      : 302 MiB                                   і
і Alignment                        : Aligned on interleaves                    і
і Interleave, duration             : 42 ms (1.00 video frame)                  і
і Interleave, preload duration     : 512 ms                                    і
і                                                                              і
і                                                                              і
і                                                                              і
і                                                                              і
і                                                                              і
і                                                                              і
і                                                                              і
і                                 SYNOPSIS                                     і
і  The G.I. Joes are not only fighting their mortal enemy Cobra; they are      і
і      forced to contend with threats from within the government that          і  
і                    jeopardize their very existence                           і    
i                         RELEASE INFO                                    
і                                                                              і
і          Cam needed some serious TLC all done more then watchable            і
і         unless you are some princess who wants it perfect then pass          і

Screens: 
image  
image  
image  
image 
		
G.I Joe 2013 PROPER TS Xvid UnKnOwN/www.RARBG.com.txt 45 B
G.I Joe 2013 PROPER TS Xvid UnKnOwN/sampledark.avi 14.098 MB
G.I Joe 2013 PROPER TS Xvid UnKnOwN/sample.avi 13.54 MB
Gathering some info...

Register and log in Isohunt and see no captcha anymore!

4000 symbols left
Hash 7fce95f76fc0dbd2270e400389714dc7e81a5417